<?xml version="1.0" encoding="UTF-8" standalone="no"?>
<!DOCTYPE svg  PUBLIC '-//W3C//DTD SVG 1.1//EN'  'http://www.w3.org/Graphics/SVG/1.1/DTD/svg11.dtd'>
<svg xmlns="http://www.w3.org/2000/svg" version="1.1">
<defs>
<font id="StopD" horiz-adv-x="1229">
<font-face underline-position="-500" font-family="StopD" unicode-range="U+0020-02DC" x-height="1365" panose-1="4 3 8 5 2 11 2 2 4 4" cap-height="1365" descent="-27" bbox="-42 -382 1892 1849" units-per-em="2048" ascent="2021" font-weight="400" underline-thickness="194"/>
<missing-glyph/>
<glyph glyph-name="space" horiz-adv-x="512" unicode=" "/>
<glyph glyph-name="exclam" d="M479 1365l-30 -846h-286v846h316zM464 322v-322h-321v322h321z" horiz-adv-x="623" unicode="!"/>
<glyph glyph-name="quotedbl" d="M357 819h-241l-48 546h337zM788 819h-241l-48 546h337z" horiz-adv-x="905" unicode='&quot;'/>
<glyph glyph-name="numbersign" d="M1151 585l-37 -232h-187l-56 -353h-265l56 353h-197l-56 -353h-262l56 353h-187l37 232h187l31 196h-187l37 232h186l56 352h262l-55 -352h197l55 352h265l-56 -352h181l-37 -232h-180l-32 -196h188zM730 781h-197l-31 -196h197z" unicode="#"/>
<glyph glyph-name="dollar" d="M167 327h425q60 0 93.5 25t33.5 69q0 60 -54 79q-25 8 -139 11q-160 3 -259.5 85.5t-138.5 243.5h537q215 0 340 -148q96 -113 96 -266q0 -178 -116 -295q-41 -40 -84 -63.5t-122 -47.5v-76h-329v61h-283v322zM1022 1365v-328h-894q25 90 53 139.5t78 92.5q42 36 85 56.5 t118 39.5v55h330v-55h230z" unicode="$"/>
<glyph glyph-name="percent" d="M383 1381q163 0 263 -118q93 -111 93 -306q0 -186 -97 -293t-261 -107q-156 0 -251 104q-104 113 -104 307q0 189 93 299q94 112 264 114zM383 1195q-100 0 -100 -227q0 -228 101 -228q97 0 97 216q0 123 -23.5 180.5t-74.5 58.5zM1022 1365h254l-399 -1365h-255z M1503 808q162 0 262 -119q93 -110 93 -305q0 -185 -97 -293q-96 -107 -259 -107q-156 0 -251 104q-104 113 -104 307q0 189 93 299q93 112 263 114zM1504 622q-100 0 -100 -227q0 -228 100 -228q97 0 97 216q0 123 -23.5 180.5t-73.5 58.5z" horiz-adv-x="1885" unicode="%"/>
<glyph glyph-name="ampersand" d="M876 512h-373q-134 0 -134 -97q0 -46 30 -66.5t99 -20.5h427v-328h-407q-242 0 -367 97q-137 106 -137 306q0 188 118 299q46 44 100 66t152 36q-59 58 -84 99q-48 80 -48 166q0 68 30.5 131.5t83.5 103.5q81 61 237 61h247v-328h-160q-93 0 -93 -65q0 -16 6.5 -29.5 t33.5 -55.5z" horiz-adv-x="965" unicode="&amp;"/>
<glyph glyph-name="quotesingle" d="M357 819h-241l-48 546h337z" horiz-adv-x="474" unicode="&apos;"/>
<glyph glyph-name="parenleft" d="M553 1516v-298q-60 -24 -88 -62q-40 -54 -56.5 -162.5t-16.5 -324.5q0 -293 31.5 -401t129.5 -148v-297q-132 18 -208 63q-146 87 -218 281.5t-72 501.5q0 450 151 654q66 89 142.5 131.5t204.5 61.5z" horiz-adv-x="581" unicode="("/>
<glyph glyph-name="parenright" d="M27 -177v297q60 24 88 62q40 54 56.5 162.5t16.5 324.5q0 293 -31.5 401t-129.5 148v298q132 -19 208 -64q146 -87 218 -281t72 -502q0 -450 -150 -654q-66 -89 -143 -131.5t-205 -60.5z" horiz-adv-x="581" unicode=")"/>
<glyph glyph-name="asterisk" d="M653 1365v-244l227 78l71 -222l-225 -75l148 -199l-191 -138l-145 202l-154 -202l-195 138l157 199l-235 75l79 222l232 -78v244h231z" horiz-adv-x="1061" unicode="*"/>
<glyph glyph-name="plus" d="M71 843h282v297h355v-297h282v-324h-282v-298h-355v298h-282v324z" horiz-adv-x="1061" unicode="+"/>
<glyph glyph-name="comma" d="M465 222l-164 -481h-158v481h322z" horiz-adv-x="608" unicode=","/>
<glyph glyph-name="hyphen" d="M806 771v-321h-806v321h806z" horiz-adv-x="806" unicode="-"/>
<glyph glyph-name="period" d="M464 322v-322h-321v322h321z" horiz-adv-x="608" unicode="."/>
<glyph glyph-name="slash" d="M340 1488h309l-320 -1638h-309z" horiz-adv-x="670" unicode="/"/>
<glyph glyph-name="zero" d="M616 1392q262 0 420 -204q150 -194 150 -526q0 -317 -156 -505q-153 -184 -417 -184q-252 0 -403 178q-166 198 -166 531q0 323 149 514q150 192 423 196zM619 1078q-100 0 -146.5 -95.5t-46.5 -299.5q0 -188 41 -288q45 -108 151 -108q97 0 140 91q46 96 46 283 q0 215 -44.5 315t-140.5 102z" unicode="0"/>
<glyph glyph-name="one" d="M878 1365v-1365h-371v1038h-239l239 327h371z" horiz-adv-x="1228" unicode="1"/>
<glyph glyph-name="two" d="M139 1365h444q168 0 261 -41q135 -59 201 -190q46 -92 46 -197q0 -180 -127 -302q-71 -69 -154.5 -96t-228.5 -27h-442q-1 38 -1 58q0 127 69 198q69 72 212 72h155q124 0 124 98q0 52 -34 75.5t-110 23.5h-415v328zM1037 328v-328h-898v328h898z" unicode="2"/>
<glyph glyph-name="three" d="M478 840h138q207 0 333 -97q149 -115 149 -314q0 -178 -117 -301q-64 -67 -149 -97.5t-206 -30.5h-481v328h436q51 0 72.5 5t36.5 20q26 27 26 64q0 50 -36.5 72.5t-119.5 22.5h-303zM1072 1365l-230 -328h-697v328h927z" unicode="3"/>
<glyph glyph-name="four" d="M885 1365l-258 -525h450v-328h-1020l424 853h404zM962 328v-328h-482v328h482z" horiz-adv-x="1228" unicode="4"/>
<glyph glyph-name="five" d="M167 840h419q245 0 370 -113q62 -56 97.5 -138t35.5 -170q0 -90 -36.5 -173t-101.5 -140q-65 -56 -148 -81t-203 -25h-433v321h399q130 0 130 98q0 93 -132 93h-397v328zM1012 1365v-328h-845v328h845z" horiz-adv-x="1228" unicode="5"/>
<glyph glyph-name="six" d="M899 1365l-361 -639q-89 -158 -89 -259q0 -81 55 -133q50 -47 115 -47q72 0 120 53t48 131q0 76 -32.5 156t-117.5 213h422q60 -127 81.5 -203.5t21.5 -161.5q0 -192 -116 -325q-153 -177 -429 -177q-231 0 -377 123q-82 69 -127.5 170.5t-45.5 215.5q0 93 29 184.5 t98 213.5l274 485h431z" unicode="6"/>
<glyph glyph-name="seven" d="M912 840l-270 -840h-392l282 840h380zM1084 1365l-105 -328h-834v328h939z" unicode="7"/>
<glyph glyph-name="eight" d="M976 710q103 -65 145 -122q65 -90 65 -205q0 -205 -180 -317q-151 -93 -400 -93q-137 0 -236 26.5t-180 83.5q-147 105 -147 291q0 104 43.5 177.5t157.5 158.5q-83 63 -117 113q-59 86 -59 189q0 122 79 216q137 164 477 164q240 0 383 -100q69 -48 109 -123t40 -157 q0 -90 -39.5 -156t-140.5 -146zM633 699q84 76 116 126t32 103q0 66 -47 108t-120 42q-80 0 -125 -43q-46 -44 -46 -109q0 -54 30.5 -100t119.5 -127q-100 -85 -134 -135.5t-34 -111.5q0 -68 47 -114q51 -51 143 -51q101 0 153 65q36 45 36 100q0 64 -36.5 116.5 t-134.5 130.5z" unicode="8"/>
<glyph glyph-name="nine" d="M338 0l353 631q89 159 89 259q0 80 -49.5 134t-121.5 54q-78 0 -124 -57q-44 -55 -44 -138q0 -73 32.5 -152t120.5 -219h-420q-63 127 -85.5 205t-22.5 168q0 234 165 377q150 130 376 130q235 0 385 -126q81 -68 125.5 -168.5t44.5 -215.5q0 -92 -25 -173t-89 -197 l-282 -512h-428z" unicode="9"/>
<glyph glyph-name="colon" d="M464 322v-322h-321v322h321zM464 827v-322h-321v322h321z" horiz-adv-x="608" unicode=":"/>
<glyph glyph-name="semicolon" d="M465 222l-164 -481h-158v481h322zM464 827v-322h-321v322h321z" horiz-adv-x="608" unicode=";"/>
<glyph glyph-name="less" d="M955 1301v-326l-540 -285l540 -285v-324l-887 473v274z" horiz-adv-x="1024" unicode="&lt;"/>
<glyph glyph-name="equal" d="M71 1062h919v-324h-919v324zM71 623h919v-324h-919v324z" horiz-adv-x="1061" unicode="="/>
<glyph glyph-name="greater" d="M69 81v326l541 285l-540 285v324l886 -473v-274z" horiz-adv-x="1024" unicode="&gt;"/>
<glyph glyph-name="question" d="M635 512h-346l166 367q24 51 24 76q0 45 -31.5 63.5t-105.5 18.5h-240v328h296q229 0 342 -115q94 -96 94 -230q0 -85 -57 -206zM621 321v-321h-321v321h321z" horiz-adv-x="978" unicode="?"/>
<glyph glyph-name="at" d="M1074 978l-27 -156h-179q-127 0 -181 -72q-46 -60 -46 -128q0 -137 167 -142l43 247h179l-44 -247q26 -1 58 -1q137 0 205 94q55 77 55 203q0 206 -140 327q-133 114 -341 114q-236 0 -393 -156q-163 -161 -163 -392q0 -148 73 -274q79 -139 216 -199q108 -47 266 -47 q190 0 371 62l48 -185q-185 -63 -421 -63q-333 0 -537 187q-110 100 -171 242q-57 135 -57 279q0 209 115 390q110 173 296 263q160 78 349 78q282 0 471 -157q108 -89 167 -219q50 -112 50 -231q0 -172 -108 -299q-79 -91 -193 -132t-288 -41q-461 0 -461 294q0 93 42 174 t112 125q99 62 252 62h215z" horiz-adv-x="1552" unicode="@"/>
<glyph glyph-name="A" d="M830 1365l427 -1365h-1284l277 840h340l-146 -512h351l-370 1037h405z" unicode="A"/>
<glyph glyph-name="B" d="M82 1365h451q169 0 243 -13t138 -54q66 -42 103 -115q44 -85 44 -183q0 -109 -45.5 -183t-145.5 -129q207 -82 207 -307q0 -110 -56 -205q-77 -129 -233 -162q-65 -14 -206 -14h-500v328h445q131 0 131 99q0 48 -31.5 70t-100.5 22h-444v328h445q76 0 110.5 23.5 t34.5 74.5q0 92 -124 92h-466v328z" horiz-adv-x="1118" unicode="B"/>
<glyph glyph-name="C" d="M970 1365v-328h-138q-100 0 -167 -24t-120 -78q-101 -103 -101 -254q0 -142 97 -244q57 -60 126.5 -84.5t180.5 -24.5h122v-328h-184q-248 0 -407 95q-200 121 -282 348q-42 115 -42 235q0 157 70 305q53 113 140 198q127 123 302 161q103 23 233 23h170z" horiz-adv-x="1010" unicode="C"/>
<glyph glyph-name="D" d="M82 1365h451q290 0 468 -145q138 -112 205 -279q50 -126 50 -262q0 -258 -170 -451q-120 -135 -265 -184q-128 -44 -304 -44h-435v840h375v-519q107 3 168 21t114 62q59 48 93.5 123.5t34.5 155.5t-35.5 155.5t-96.5 124.5q-50 40 -113.5 57t-165.5 17h-374v328z" horiz-adv-x="1311" unicode="D"/>
<glyph glyph-name="E" d="M1001 840v-328h-544v-184h544v-328h-919v840h919zM1001 1365v-328h-919v328h919z" horiz-adv-x="1083" unicode="E"/>
<glyph glyph-name="F" d="M1004 840v-328h-547v-512h-375v840h922zM1004 1365v-328h-922v328h922z" horiz-adv-x="1044" unicode="F"/>
<glyph glyph-name="G" d="M1144 1365v-328h-305q-191 0 -288 -95q-108 -106 -108 -273q0 -170 115 -280q107 -102 261 -102q101 0 174.5 44t150.5 151v-416q-177 -93 -376 -93q-300 0 -502 192q-103 98 -158 234q-54 132 -54 273q0 283 194 483q124 127 267 169q141 41 345 41h284zM1144 840v-328 h-414v328h414z" horiz-adv-x="1226" unicode="G"/>
<glyph glyph-name="H" d="M457 1365v-525h462v-328h-462v-512h-375v1365h375z" horiz-adv-x="932" unicode="H"/>
<glyph glyph-name="I" d="M457 840v-840h-375v840h375zM457 1365v-328h-375v328h375z" horiz-adv-x="539" unicode="I"/>
<glyph glyph-name="J" d="M650 840v-316q-1 -233 -38 -308q-103 -214 -366 -216h-263v328h164q69 0 98.5 37t29.5 126v349h375zM650 1365v-328h-375v328h375z" horiz-adv-x="733" unicode="J"/>
<glyph glyph-name="K" d="M909 1365l-542 -650l579 -715h-482l-437 549v290l437 526h445z" horiz-adv-x="933" unicode="K"/>
<glyph glyph-name="L" d="M457 1365v-1037h465v-328h-840v1365h375z" horiz-adv-x="908" unicode="L"/>
<glyph glyph-name="M" d="M82 1365h966q176 0 261 -23t149 -87q61 -62 86.5 -145t25.5 -222v-888h-375v874q0 96 -33 129.5t-126 33.5h-579v-1037h-375v1365zM999 840v-840h-345v840h345z" horiz-adv-x="1652" unicode="M"/>
<glyph glyph-name="N" d="M82 1365h591q131 0 215 -23t145 -76q64 -55 94 -139.5t30 -210.5v-916h-375v897q0 80 -32 110t-116 30h-177v-1037h-375v1365z" horiz-adv-x="1238" unicode="N"/>
<glyph glyph-name="O" d="M753 1392q181 0 340 -78q215 -106 308 -322q59 -138 59 -316q0 -303 -195 -504q-193 -199 -498 -199q-304 0 -502 190q-210 202 -210 514q0 193 86 357q96 184 287 282q144 73 325 76zM755 1078q-154 0 -236 -113q-75 -104 -75 -279q0 -184 87 -297q79 -102 229 -102 q162 0 242 123q69 107 69 267q0 195 -92 302q-82 97 -224 99z" horiz-adv-x="1514" unicode="O"/>
<glyph glyph-name="P" d="M82 1365h465q135 0 219 -23.5t148 -79.5q68 -59 106.5 -146.5t38.5 -179.5q0 -124 -67 -230q-65 -104 -162 -149t-253 -45h-120v-512h-375v840h425q94 0 125 22q38 28 38 78q0 52 -37 74.5t-123 22.5h-428v328z" horiz-adv-x="1100" unicode="P"/>
<glyph glyph-name="Q" d="M755 340q121 141 164 214q71 121 71 229q0 144 -107 232q-77 63 -178 63q-122 0 -206 -90q-81 -86 -81 -197q0 -151 174 -333l438 -458h-505l-238 243q-129 131 -187.5 255t-58.5 266q0 150 66 283q102 208 320 295q125 50 276 50q302 0 495 -193q95 -93 142 -219 q39 -102 39 -204q0 -122 -45 -220.5t-153 -215.5h-426z" horiz-adv-x="1420" unicode="Q"/>
<glyph glyph-name="R" d="M41 1365h468q208 0 298 -38q129 -54 181 -181q29 -70 29 -148q0 -142 -81 -233q-37 -42 -81.5 -64.5t-124.5 -40.5q64 -14 98.5 -31.5t62.5 -50.5q64 -75 65 -217v-361h-374v321q0 109 -47.5 150t-175.5 41h-318v328h442q94 0 122 34q23 28 23 65q0 50 -31.5 74t-99.5 24 h-456v328z" horiz-adv-x="1058" unicode="R"/>
<glyph glyph-name="S" d="M481 1365q-10 -54 -10 -87q0 -44 25.5 -90t91.5 -121q134 -153 184.5 -217.5t81.5 -122.5q71 -127 71 -254q0 -131 -66 -246q-130 -227 -467 -227h-378v328h335q105 0 150 53q37 44 37 93q0 60 -41 121.5t-206 251.5q-140 160 -175 246q-32 78 -32 144q0 47 14 128h385z " horiz-adv-x="952" unicode="S"/>
<glyph glyph-name="T" d="M490 840v-340q0 -106 31 -139t129 -33h241v-328h-348q-221 0 -322.5 115t-101.5 366v359h371zM936 1365v-328h-881v328h881z" horiz-adv-x="977" unicode="T"/>
<glyph glyph-name="U" d="M1158 1365v-1365h-638q-185 1 -270 58q-89 57 -128.5 151t-39.5 249v907h375v-865q0 -106 30 -139t127 -33h169v1037h375z" horiz-adv-x="1240" unicode="U"/>
<glyph glyph-name="V" d="M1260 1359l-453 -1359h-407l-427 1365h396l171 -625q27 -102 68 -346q31 192 69 333l186 638z" horiz-adv-x="1232" unicode="V"/>
<glyph glyph-name="W" d="M1663 1365l-563 -1387l-429 1008l234 398l195 -576l176 557h387zM379 1365l411 -1010l-223 -377l-594 1387h406z" horiz-adv-x="1636" unicode="W"/>
<glyph glyph-name="X" d="M1170 1365v-328q-82 -4 -130 -17.5t-95 -46.5q-71 -48 -113 -128t-42 -168q0 -161 121 -268q52 -47 108 -66t151 -22v-321q-110 0 -153.5 3.5t-97.5 17.5q-105 27 -178.5 88.5t-137.5 174.5q-46 -92 -102 -148q-76 -73 -183 -104.5t-277 -31.5v321q111 2 175 32 q92 44 147 131.5t55 190.5q0 77 -31 148.5t-85 119.5q-50 44 -106 64t-155 30v328q104 0 154 -5t106 -23q104 -32 173 -94t129 -176q53 108 120 170q80 71 180 99.5t267 28.5z" horiz-adv-x="1211" unicode="X"/>
<glyph glyph-name="Y" d="M1126 1365v-237q0 -228 -48 -338q-75 -171 -233 -247q-114 -55 -263 -55q-258 0 -408 165q-74 81 -103.5 179.5t-29.5 264.5v268h374v-340q0 -126 55 -173q46 -39 113 -39q86 0 127.5 55t41.5 169v328h374zM890 328v-328h-624v328h624z" horiz-adv-x="1167" unicode="Y"/>
<glyph glyph-name="Z" d="M821 840l-228 -512h450v-328h-1002l373 840h407zM1052 1365l-143 -328h-826v328h969z" horiz-adv-x="1093" unicode="Z"/>
<glyph glyph-name="bracketleft" d="M393 145h172v-295h-483v1638h483v-295h-172v-1048z" horiz-adv-x="606" unicode="["/>
<glyph glyph-name="backslash" d="M332 1488l320 -1638h-309l-320 1638h309z" horiz-adv-x="670" unicode="\"/>
<glyph glyph-name="bracketright" d="M199 1193h-172v295h483v-1638h-483v295h172v1048z" horiz-adv-x="606" unicode="]"/>
<glyph glyph-name="asciicircum" d="M315 711h-289l304 663h364l304 -663h-289l-197 442z" horiz-adv-x="1024" unicode="^"/>
<glyph glyph-name="underscore" d="M0 -112h1024v-194h-1024v194z" horiz-adv-x="1024" unicode="_"/>
<glyph glyph-name="grave" d="M245 1748h317l108 -287h-265z" horiz-adv-x="1024" unicode="`"/>
<glyph glyph-name="a" d="M830 1365l427 -1365h-1284l277 840h340l-146 -512h351l-370 1037h405z" unicode="a"/>
<glyph glyph-name="b" d="M82 1365h451q169 0 243 -13t138 -54q66 -42 103 -115q44 -85 44 -183q0 -109 -45.5 -183t-145.5 -129q207 -82 207 -307q0 -110 -56 -205q-77 -129 -233 -162q-65 -14 -206 -14h-500v328h445q131 0 131 99q0 48 -31.5 70t-100.5 22h-444v328h445q76 0 110.5 23.5 t34.5 74.5q0 92 -124 92h-466v328z" horiz-adv-x="1118" unicode="b"/>
<glyph glyph-name="c" d="M970 1365v-328h-138q-100 0 -167 -24t-120 -78q-101 -103 -101 -254q0 -142 97 -244q57 -60 126.5 -84.5t180.5 -24.5h122v-328h-184q-248 0 -407 95q-200 121 -282 348q-42 115 -42 235q0 157 70 305q53 113 140 198q127 123 302 161q103 23 233 23h170z" horiz-adv-x="1010" unicode="c"/>
<glyph glyph-name="d" d="M82 1365h451q290 0 468 -145q138 -112 205 -279q50 -126 50 -262q0 -258 -170 -451q-120 -135 -265 -184q-128 -44 -304 -44h-435v840h375v-519q107 3 168 21t114 62q59 48 93.5 123.5t34.5 155.5t-35.5 155.5t-96.5 124.5q-50 40 -113.5 57t-165.5 17h-374v328z" horiz-adv-x="1311" unicode="d"/>
<glyph glyph-name="e" d="M1001 840v-328h-544v-184h544v-328h-919v840h919zM1001 1365v-328h-919v328h919z" horiz-adv-x="1083" unicode="e"/>
<glyph glyph-name="f" d="M1004 840v-328h-547v-512h-375v840h922zM1004 1365v-328h-922v328h922z" horiz-adv-x="1044" unicode="f"/>
<glyph glyph-name="g" d="M1144 1365v-328h-305q-191 0 -288 -95q-108 -106 -108 -273q0 -170 115 -280q107 -102 261 -102q101 0 174.5 44t150.5 151v-416q-177 -93 -376 -93q-300 0 -502 192q-103 98 -158 234q-54 132 -54 273q0 283 194 483q124 127 267 169q141 41 345 41h284zM1144 840v-328 h-414v328h414z" horiz-adv-x="1226" unicode="g"/>
<glyph glyph-name="h" d="M457 1365v-525h462v-328h-462v-512h-375v1365h375z" horiz-adv-x="932" unicode="h"/>
<glyph glyph-name="i" d="M457 840v-840h-375v840h375zM457 1365v-328h-375v328h375z" horiz-adv-x="539" unicode="i"/>
<glyph glyph-name="j" d="M650 840v-316q-1 -233 -38 -308q-103 -214 -366 -216h-263v328h164q69 0 98.5 37t29.5 126v349h375zM650 1365v-328h-375v328h375z" horiz-adv-x="733" unicode="j"/>
<glyph glyph-name="k" d="M909 1365l-542 -650l579 -715h-482l-437 549v290l437 526h445z" horiz-adv-x="933" unicode="k"/>
<glyph glyph-name="l" d="M457 1365v-1037h465v-328h-840v1365h375z" horiz-adv-x="908" unicode="l"/>
<glyph glyph-name="m" d="M82 1365h966q176 0 261 -23t149 -87q61 -62 86.5 -145t25.5 -222v-888h-375v874q0 96 -33 129.5t-126 33.5h-579v-1037h-375v1365zM999 840v-840h-345v840h345z" horiz-adv-x="1652" unicode="m"/>
<glyph glyph-name="n" d="M82 1365h591q131 0 215 -23t145 -76q64 -55 94 -139.5t30 -210.5v-916h-375v897q0 80 -32 110t-116 30h-177v-1037h-375v1365z" horiz-adv-x="1238" unicode="n"/>
<glyph glyph-name="o" d="M753 1392q181 0 340 -78q215 -106 308 -322q59 -138 59 -316q0 -303 -195 -504q-193 -199 -498 -199q-304 0 -502 190q-210 202 -210 514q0 193 86 357q96 184 287 282q144 73 325 76zM755 1078q-154 0 -236 -113q-75 -104 -75 -279q0 -184 87 -297q79 -102 229 -102 q162 0 242 123q69 107 69 267q0 195 -92 302q-82 97 -224 99z" horiz-adv-x="1514" unicode="o"/>
<glyph glyph-name="p" d="M82 1365h465q135 0 219 -23.5t148 -79.5q68 -59 106.5 -146.5t38.5 -179.5q0 -124 -67 -230q-65 -104 -162 -149t-253 -45h-120v-512h-375v840h425q94 0 125 22q38 28 38 78q0 52 -37 74.5t-123 22.5h-428v328z" horiz-adv-x="1100" unicode="p"/>
<glyph glyph-name="q" d="M755 340q121 141 164 214q71 121 71 229q0 144 -107 232q-77 63 -178 63q-122 0 -206 -90q-81 -86 -81 -197q0 -151 174 -333l438 -458h-505l-238 243q-129 131 -187.5 255t-58.5 266q0 150 66 283q102 208 320 295q125 50 276 50q302 0 495 -193q95 -93 142 -219 q39 -102 39 -204q0 -122 -45 -220.5t-153 -215.5h-426z" horiz-adv-x="1420" unicode="q"/>
<glyph glyph-name="r" d="M41 1365h468q208 0 298 -38q129 -54 181 -181q29 -70 29 -148q0 -142 -81 -233q-37 -42 -81.5 -64.5t-124.5 -40.5q64 -14 98.5 -31.5t62.5 -50.5q64 -75 65 -217v-361h-374v321q0 109 -47.5 150t-175.5 41h-318v328h442q94 0 122 34q23 28 23 65q0 50 -31.5 74t-99.5 24 h-456v328z" horiz-adv-x="1058" unicode="r"/>
<glyph glyph-name="s" d="M481 1365q-10 -54 -10 -87q0 -44 25.5 -90t91.5 -121q134 -153 184.5 -217.5t81.5 -122.5q71 -127 71 -254q0 -131 -66 -246q-130 -227 -467 -227h-378v328h335q105 0 150 53q37 44 37 93q0 60 -41 121.5t-206 251.5q-140 160 -175 246q-32 78 -32 144q0 47 14 128h385z " horiz-adv-x="952" unicode="s"/>
<glyph glyph-name="t" d="M490 840v-340q0 -106 31 -139t129 -33h241v-328h-348q-221 0 -322.5 115t-101.5 366v359h371zM936 1365v-328h-881v328h881z" horiz-adv-x="977" unicode="t"/>
<glyph glyph-name="u" d="M1158 1365v-1365h-638q-185 1 -270 58q-89 57 -128.5 151t-39.5 249v907h375v-865q0 -106 30 -139t127 -33h169v1037h375z" horiz-adv-x="1240" unicode="u"/>
<glyph glyph-name="v" d="M1260 1359l-453 -1359h-407l-427 1365h396l171 -625q27 -102 68 -346q31 192 69 333l186 638z" horiz-adv-x="1232" unicode="v"/>
<glyph glyph-name="w" d="M1663 1365l-563 -1387l-429 1008l234 398l195 -576l176 557h387zM379 1365l411 -1010l-223 -377l-594 1387h406z" horiz-adv-x="1636" unicode="w"/>
<glyph glyph-name="x" d="M1170 1365v-328q-82 -4 -130 -17.5t-95 -46.5q-71 -48 -113 -128t-42 -168q0 -161 121 -268q52 -47 108 -66t151 -22v-321q-110 0 -153.5 3.5t-97.5 17.5q-105 27 -178.5 88.5t-137.5 174.5q-46 -92 -102 -148q-76 -73 -183 -104.5t-277 -31.5v321q111 2 175 32 q92 44 147 131.5t55 190.5q0 77 -31 148.5t-85 119.5q-50 44 -106 64t-155 30v328q104 0 154 -5t106 -23q104 -32 173 -94t129 -176q53 108 120 170q80 71 180 99.5t267 28.5z" horiz-adv-x="1211" unicode="x"/>
<glyph glyph-name="y" d="M1126 1365v-237q0 -228 -48 -338q-75 -171 -233 -247q-114 -55 -263 -55q-258 0 -408 165q-74 81 -103.5 179.5t-29.5 264.5v268h374v-340q0 -126 55 -173q46 -39 113 -39q86 0 127.5 55t41.5 169v328h374zM890 328v-328h-624v328h624z" horiz-adv-x="1167" unicode="y"/>
<glyph glyph-name="z" d="M821 840l-228 -512h450v-328h-1002l373 840h407zM1052 1365l-143 -328h-826v328h969z" horiz-adv-x="1093" unicode="z"/>
<glyph glyph-name="braceleft" d="M307 669q66 -36 94 -95t28 -163v-139q1 -62 9.5 -81.5t40.5 -32.5q31 -13 114 -13v-295h-185q-140 0 -205.5 71t-65.5 222v229q4 136 -110 157v279q114 22 110 158v229q0 151 65.5 222t205.5 71h185v-295q-90 0 -118 -15q-30 -14 -37.5 -32.5t-8.5 -79.5v-139 q0 -104 -28 -163t-94 -95z" horiz-adv-x="626" unicode="{"/>
<glyph glyph-name="bar" d="M347 1365h330v-1706h-330v1706z" horiz-adv-x="1024" unicode="|"/>
<glyph glyph-name="braceright" d="M381 669q-65 35 -93.5 94.5t-28.5 163.5v138q-1 70 -7.5 92t-32.5 37q-25 15 -113 15h-38v279h253q274 1 271 -293v-229q-4 -137 110 -158v-279q-114 -20 -110 -157v-229q3 -294 -271 -293h-253v279h38q92 0 117 17q23 16 29 37t7 90v138q0 104 28.5 163.5t93.5 94.5z " horiz-adv-x="771" unicode="}"/>
<glyph glyph-name="asciitilde" d="M348 1122l-159 133q36 90 83 157q91 129 226 129q66 0 230 -68q118 -49 153 -49q76 0 141 123l158 -133q-54 -132 -113 -195q-82 -88 -208 -88q-44 0 -80 11t-147 59q-103 44 -147 44q-72 0 -137 -123z" horiz-adv-x="1365" unicode="~"/>
<glyph glyph-name="nbspace" horiz-adv-x="512" unicode=" "/>
<glyph glyph-name="exclamdown" d="M163 0l30 847h286v-847h-316zM179 1043v322h321v-322h-321z" horiz-adv-x="623" unicode="¡"/>
<glyph glyph-name="cent" d="M990 497v-306h-145v-61h-329v126q-105 54 -168 129q-124 147 -124 337q0 152 75.5 272.5t216.5 193.5v127h329v-62h145v-306h-124q-80 0 -131 -17.5t-90 -59.5q-61 -65 -61 -148t61 -148q39 -42 90 -59.5t131 -17.5h124z" unicode="¢"/>
<glyph glyph-name="sterling" d="M1081 1365v-328h-322q-91 0 -120.5 -37t-36.5 -160h345v-328h-754l42 436q22 231 130 324t353 93h363zM1081 328v-328h-934l30 328h904z" unicode="£"/>
<glyph glyph-name="currency" d="M24 945l244 244l125 -125q90 27 140 27q43 0 135 -27l124 125l244 -244l-124 -124l7 -23q20 -66 20 -117t-27 -136l124 -124l-244 -244l-124 124q-80 -27 -138 -27q-60 0 -137 27l-125 -124l-244 244l124 124l-6 22q-20 65 -20 115q0 34 3.5 51.5t22.5 87.5zM530 836 q-62 0 -107.5 -45t-45.5 -107q0 -65 44.5 -110t109.5 -45q63 0 108 45t45 109q0 63 -44.5 107.5t-109.5 45.5z" horiz-adv-x="1061" unicode="¤"/>
<glyph glyph-name="yen" d="M116 464v164h266l-42 95h-224v164h151l-211 478h376l183 -526l183 526h375l-211 -478h151v-164h-224l-42 -95h266v-164h-997zM423 0v328h383v-328h-383z" unicode="¥"/>
<glyph glyph-name="brokenbar" d="M347 1365h330v-725h-330v725zM347 314h330v-655h-330v655z" horiz-adv-x="1024" unicode="¦"/>
<glyph glyph-name="section" d="M178 963h645q144 -103 144 -271q0 -154 -110 -245q64 -93 64 -210q0 -165 -107 -273q-113 -114 -321 -114h-333v328h293q45 0 66.5 16.5t21.5 50.5q0 29 -24.5 46.5t-97.5 41.5q-167 55 -218 100q-107 93 -107 233q0 136 116 245q-16 19 -32 52zM532 768q-27 0 -46 -18.5 t-19 -44.5q0 -27 18.5 -45.5t45.5 -18.5q26 0 44.5 18.5t18.5 45.5q0 26 -18 44t-44 19zM903 1160h-756q19 96 46 146t81 91q119 91 283 91h346v-328z" horiz-adv-x="1061" unicode="§"/>
<glyph glyph-name="dieresis" d="M811 1746v-285h-265v285h265zM480 1746v-285h-268v285h268z" horiz-adv-x="1024" unicode="¨"/>
<glyph glyph-name="copyright" d="M777 1396q192 0 363 -105q172 -106 262 -284q78 -154 78 -325q0 -200 -105 -372q-104 -171 -283 -263q-153 -78 -324 -78q-199 0 -371 105t-264 284q-78 153 -78 323q0 202 105 375q103 169 285 263q152 77 332 77zM775 1261q-242 0 -409 -168q-168 -169 -168 -411 q0 -240 168 -409q167 -169 403 -169q234 0 401 169q167 170 167 410q0 163 -83 302q-82 137 -227 213q-114 59 -252 63zM999 1065v-194h-87q-106 0 -161 -54q-57 -55 -57 -135q0 -76 54 -130q32 -32 71 -45t102 -13h78v-194h-114q-218 0 -335 132q-95 106 -95 248 q0 143 95 252q61 70 143 101.5t201 31.5h105z" horiz-adv-x="1535" unicode="©"/>
<glyph glyph-name="ordfeminine" d="M420 1364v-177q-43 -11 -69 -30q-66 -48 -66 -134q0 -82 64 -133q47 -36 139 -40v515h206v-683h-232q-103 0 -173 26.5t-127 87.5q-90 97 -90 225q0 98 53 182q49 76 117.5 113.5t177.5 47.5z" horiz-adv-x="819" unicode="ª"/>
<glyph glyph-name="guillemotleft" d="M723 1069l-267 -424l267 -414h-388l-267 414l267 424h388zM1188 1069l-268 -424l268 -414h-388l-268 414l268 424h388z" horiz-adv-x="1271" unicode="«"/>
<glyph glyph-name="logicalnot" d="M636 0v312h-568v287h887v-599h-319z" horiz-adv-x="1024" unicode="¬"/>
<glyph glyph-name="sfthyphen" d="M806 771v-321h-806v321h806z" horiz-adv-x="806" unicode="­"/>
<glyph glyph-name="registered" d="M777 1396q192 0 363 -105q172 -106 262 -284q78 -154 78 -325q0 -200 -105 -372q-104 -171 -283 -263q-153 -78 -324 -78q-199 0 -371 105t-264 284q-78 153 -78 323q0 202 105 375q103 169 285 263q152 77 332 77zM775 1261q-242 0 -409 -168q-168 -169 -168 -411 q0 -240 168 -409q167 -169 403 -169q234 0 401 169q167 170 167 410q0 163 -83 302q-82 137 -227 213q-114 59 -252 63zM478 1065h278q96 0 148 -13t91 -47q63 -56 63 -148q0 -72 -37.5 -120.5t-106.5 -66.5q108 -29 108 -165v-205h-231v184q0 57 -25.5 77.5t-96.5 20.5 h-191v194h262q42 0 60 11t18 37q0 47 -69 47h-271v194z" horiz-adv-x="1535" unicode="®"/>
<glyph glyph-name="overscore" d="M0 1801h1024v-193h-1024v193z" horiz-adv-x="1024" unicode="¯"/>
<glyph glyph-name="degree" d="M381 1366q128 0 220 -91t92 -221q0 -129 -92 -221q-91 -91 -220 -91q-130 0 -222 91q-91 92 -91 225q0 128 91 217q93 89 222 91zM381 1180q-52 0 -89.5 -36.5t-37.5 -87.5q0 -54 37 -91t90 -37q52 0 89 37t37 89q0 53 -36.5 89t-89.5 37z" horiz-adv-x="761" unicode="°"/>
<glyph glyph-name="plusminus" d="M71 1020h282v298h355v-298h282v-324h-282v-297h-355v297h-282v324zM71 324h919v-324h-919v324z" horiz-adv-x="1061" unicode="±"/>
<glyph glyph-name="twosuperior" d="M98 1365h287q85 0 139.5 -15.5t98.5 -52.5q88 -75 88 -191q0 -109 -82 -184q-46 -41 -99.5 -57.5t-145.5 -16.5h-286q-1 29 -1 43q0 164 184 164h98q71 0 71 51q0 52 -84 52h-268v207zM678 753v-207h-580v207h580z" horiz-adv-x="808" unicode="²"/>
<glyph glyph-name="threesuperior" d="M310 1055h90q132 0 214 -59q97 -68 97 -191q0 -108 -76 -182q-79 -77 -228 -77h-310v207h282q43 0 60.5 10t17.5 36q0 49 -92 49h-204zM701 1365l-155 -207h-449v207h604z" horiz-adv-x="808" unicode="³"/>
<glyph glyph-name="acute" d="M779 1748l-160 -287h-265l108 287h317z" horiz-adv-x="1024" unicode="´"/>
<glyph glyph-name="mu" d="M76 -350v1333h277v-509q0 -123 32 -175q54 -87 145 -87q85 0 131 69.5t46 199.5v502h277v-983h-277v131q-57 -151 -181 -151q-58 0 -98.5 28t-74.5 92v-450h-277z" horiz-adv-x="1061" unicode="µ"/>
<glyph glyph-name="paragraph" d="M1190 1488v-258h-519v-1380h-218v904q-20 -1 -28 -1q-147 0 -259 79q-127 89 -127 286q0 188 122 279t373 91h656zM1035 1038v-1188h-218v1188h218z" unicode="¶"/>
<glyph glyph-name="middot" d="M544 830v-404h-401v404h401z" horiz-adv-x="688" unicode="·"/>
<glyph glyph-name="cedilla" d="M725 -95l-160 -287h-265l108 287h317z" horiz-adv-x="1024" unicode="¸"/>
<glyph glyph-name="onesuperior" d="M578 1365v-819h-248v612h-158l162 207h244z" horiz-adv-x="808" unicode="¹"/>
<glyph glyph-name="ordmasculine" d="M407 1379q155 0 260 -90q114 -99 114 -268q0 -152 -103 -252q-102 -100 -263 -100t-265 95q-111 101 -111 257q0 151 98 250q107 106 270 108zM408 1214q-73 0 -114.5 -50t-41.5 -138q0 -90 42.5 -141t117.5 -51q72 0 114 50t42 137q0 91 -42 141.5t-118 51.5z" horiz-adv-x="819" unicode="º"/>
<glyph glyph-name="guillemotright" d="M546 1069h388l268 -424l-268 -414h-388l268 414zM82 1069h388l267 -424l-267 -414h-388l268 414z" horiz-adv-x="1271" unicode="»"/>
<glyph glyph-name="onequarter" d="M578 1365v-819h-248v612h-158l162 207h244zM1065 1365h255l-400 -1365h-254zM1776 819l-163 -310h279v-207h-661l275 517h270zM1820 207v-207h-317v207h317z" horiz-adv-x="1972" unicode="¼"/>
<glyph glyph-name="onehalf" d="M578 1365v-819h-248v612h-158l162 207h244zM1065 1365h255l-400 -1365h-254zM1262 819h287q85 0 139.5 -15.5t98.5 -52.5q88 -75 88 -191q0 -109 -82 -184q-46 -41 -99.5 -57.5t-145.5 -16.5h-286q-1 29 -1 43q0 81 46.5 122.5t137.5 41.5h98q71 0 71 51q0 52 -84 52 h-268v207zM1841 207v-207h-580v207h580z" horiz-adv-x="1972" unicode="½"/>
<glyph glyph-name="threequarters" d="M310 1055h90q132 0 214 -59q97 -68 97 -191q0 -108 -76 -182q-79 -77 -228 -77h-310v207h282q43 0 60.5 10t17.5 36q0 49 -92 49h-204zM701 1365l-155 -207h-449v207h604zM1065 1365h255l-400 -1365h-254zM1776 819l-163 -310h279v-207h-661l275 517h270zM1820 207v-207 h-317v207h317z" horiz-adv-x="1972" unicode="¾"/>
<glyph glyph-name="questiondown" d="M301 853h345l-166 -367q-23 -51 -23 -76q0 -45 31 -63.5t106 -18.5h240v-328h-296q-229 0 -342 115q-94 96 -94 230q0 85 57 206zM316 1044v321h321v-321h-321z" horiz-adv-x="978" unicode="¿"/>
<glyph glyph-name="Agrave" d="M830 1365l427 -1365h-1284l277 840h340l-146 -512h351l-370 1037h405zM348 1748h317l108 -287h-265z" unicode="À"/>
<glyph glyph-name="Aacute" d="M830 1365l427 -1365h-1284l277 840h340l-146 -512h351l-370 1037h405zM882 1748l-160 -287h-265l108 287h317z" unicode="Á"/>
<glyph glyph-name="Acircumflex" d="M830 1365l427 -1365h-1284l277 840h340l-146 -512h351l-370 1037h405zM746 1746l181 -285h-245l-68 113l-60 -113h-251l177 285h266z" unicode="Â"/>
<glyph glyph-name="Atilde" d="M830 1365l427 -1365h-1284l277 840h340l-146 -512h351l-370 1037h405zM366 1684q68 50 142 50q46 0 140 -32q75 -26 108 -26q60 0 108 55v-225q-58 -44 -131 -44q-49 0 -174 44q-42 14 -77 14q-36 0 -60.5 -12.5t-55.5 -45.5v222z" unicode="Ã"/>
<glyph glyph-name="Adieresis" d="M830 1365l427 -1365h-1284l277 840h340l-146 -512h351l-370 1037h405zM915 1746v-285h-265v285h265zM583 1746v-285h-268v285h268z" unicode="Ä"/>
<glyph glyph-name="Aring" d="M830 1365l427 -1365h-1284l277 840h340l-146 -512h351l-370 1037h405zM618 1849q89 0 151 -69q54 -59 54 -138q0 -93 -69 -155q-59 -53 -139 -53q-93 0 -155 69q-53 59 -53 140q0 90 69 153q58 53 142 53zM616 1702q-26 0 -44.5 -17.5t-18.5 -42.5q0 -26 18 -44t44 -18 t44 18t18 43t-17.5 42.5t-43.5 18.5z" unicode="Å"/>
<glyph glyph-name="AE" d="M488 1365h1236v-328h-1124zM317 841h336l-142 -513h352l-189 513h1050v-328h-564l60 -185h504v-328h-1683z" horiz-adv-x="1879" unicode="Æ"/>
<glyph glyph-name="Ccedilla" d="M970 1365v-328h-138q-100 0 -167 -24t-120 -78q-101 -103 -101 -254q0 -142 97 -244q57 -60 126.5 -84.5t180.5 -24.5h122v-328h-184q-248 0 -407 95q-200 121 -282 348q-42 115 -42 235q0 157 70 305q53 112 140 198q127 123 302 161q103 23 233 23h170zM773 -95 l-161 -287h-264l108 287h317z" horiz-adv-x="1010" unicode="Ç"/>
<glyph glyph-name="Egrave" d="M1001 840v-328h-544v-184h544v-328h-919v840h919zM1001 1365v-328h-919v328h919zM274 1748h317l108 -287h-265z" horiz-adv-x="1083" unicode="È"/>
<glyph glyph-name="Eacute" d="M1001 840v-328h-544v-184h544v-328h-919v840h919zM1001 1365v-328h-919v328h919zM809 1748l-160 -287h-265l108 287h317z" horiz-adv-x="1083" unicode="É"/>
<glyph glyph-name="Ecircumflex" d="M1001 840v-328h-544v-184h544v-328h-919v840h919zM1001 1365v-328h-919v328h919zM672 1746l181 -285h-245l-68 113l-60 -113h-251l177 285h266z" horiz-adv-x="1083" unicode="Ê"/>
<glyph glyph-name="Edieresis" d="M1001 840v-328h-544v-184h544v-328h-919v840h919zM1001 1365v-328h-919v328h919zM841 1746v-285h-265v285h265zM510 1746v-285h-268v285h268z" horiz-adv-x="1083" unicode="Ë"/>
<glyph glyph-name="Igrave" d="M457 840v-840h-375v840h375zM457 1365v-328h-375v328h375zM3 1748h317l108 -287h-265z" horiz-adv-x="539" unicode="Ì"/>
<glyph glyph-name="Iacute" d="M457 840v-840h-375v840h375zM457 1365v-328h-375v328h375zM537 1748l-160 -287h-265l108 287h317z" horiz-adv-x="539" unicode="Í"/>
<glyph glyph-name="Icircumflex" d="M457 840v-840h-375v840h375zM457 1365v-328h-375v328h375zM401 1746l181 -285h-245l-68 113l-60 -113h-251l177 285h266z" horiz-adv-x="539" unicode="Î"/>
<glyph glyph-name="Idieresis" d="M457 840v-840h-375v840h375zM457 1365v-328h-375v328h375zM542 1733v-258h-238v258h238zM237 1733v-258h-240v258h240z" horiz-adv-x="539" unicode="Ï"/>
<glyph glyph-name="Eth" d="M110 1365h452q289 0 468 -145q137 -112 204 -279q50 -126 50 -263q0 -257 -170 -450q-119 -135 -264 -184q-129 -44 -305 -44h-435v328h375q181 0 282 82q59 47 93.5 121t34.5 152q0 80 -35.5 155.5t-95.5 123.5q-51 41 -114.5 58t-164.5 17h-375v328zM663 840v-328h-608 v328h608z" horiz-adv-x="1338" unicode="Ð"/>
<glyph glyph-name="Ntilde" d="M82 1365h591q131 0 215 -23t145 -76q64 -55 94 -139.5t30 -210.5v-916h-375v897q0 80 -32 110t-116 30h-177v-1037h-375v1365zM315 1684q68 50 142 50q46 0 140 -32q75 -26 108 -26q60 0 108 55v-225q-58 -44 -131 -44q-49 0 -174 44q-42 14 -77 14q-36 0 -60.5 -12.5 t-55.5 -45.5v222z" horiz-adv-x="1238" unicode="Ñ"/>
<glyph glyph-name="Ograve" d="M753 1392q181 0 340 -78q215 -106 308 -322q59 -138 59 -316q0 -303 -195 -504q-193 -199 -498 -199q-304 0 -502 190q-210 202 -210 514q0 193 86 357q96 184 287 282q144 73 325 76zM755 1078q-154 0 -236 -113q-75 -104 -75 -279q0 -184 87 -297q79 -102 229 -102 q162 0 242 123q69 107 69 267q0 195 -92 302q-82 97 -224 99zM490 1748h317l108 -287h-265z" horiz-adv-x="1514" unicode="Ò"/>
<glyph glyph-name="Oacute" d="M753 1392q181 0 340 -78q215 -106 308 -322q59 -138 59 -316q0 -303 -195 -504q-193 -199 -498 -199q-304 0 -502 190q-210 202 -210 514q0 193 86 357q96 184 287 282q144 73 325 76zM755 1078q-154 0 -236 -113q-75 -104 -75 -279q0 -184 87 -297q79 -102 229 -102 q162 0 242 123q69 107 69 267q0 195 -92 302q-82 97 -224 99zM1025 1748l-160 -287h-265l108 287h317z" horiz-adv-x="1514" unicode="Ó"/>
<glyph glyph-name="Ocircumflex" d="M753 1392q181 0 340 -78q215 -106 308 -322q59 -138 59 -316q0 -303 -195 -504q-193 -199 -498 -199q-304 0 -502 190q-210 202 -210 514q0 193 86 357q96 184 287 282q144 73 325 76zM755 1078q-154 0 -236 -113q-75 -104 -75 -279q0 -184 87 -297q79 -102 229 -102 q162 0 242 123q69 107 69 267q0 195 -92 302q-82 97 -224 99zM888 1746l181 -285h-245l-68 113l-60 -113h-251l177 285h266z" horiz-adv-x="1514" unicode="Ô"/>
<glyph glyph-name="Otilde" d="M753 1392q181 0 340 -78q215 -106 308 -322q59 -138 59 -316q0 -303 -195 -504q-193 -199 -498 -199q-304 0 -502 190q-210 202 -210 514q0 193 86 357q96 184 287 282q144 73 325 76zM755 1078q-154 0 -236 -113q-75 -104 -75 -279q0 -184 87 -297q79 -102 229 -102 q162 0 242 123q69 107 69 267q0 195 -92 302q-82 97 -224 99zM508 1684q68 50 142 50q46 0 140 -32q75 -26 108 -26q60 0 108 55v-225q-58 -44 -131 -44q-49 0 -174 44q-42 14 -77 14q-36 0 -60.5 -12.5t-55.5 -45.5v222z" horiz-adv-x="1514" unicode="Õ"/>
<glyph glyph-name="Odieresis" d="M753 1392q181 0 340 -78q215 -106 308 -322q59 -138 59 -316q0 -303 -195 -504q-193 -199 -498 -199q-304 0 -502 190q-210 202 -210 514q0 193 86 357q96 184 287 282q144 73 325 76zM755 1078q-154 0 -236 -113q-75 -104 -75 -279q0 -184 87 -297q79 -102 229 -102 q162 0 242 123q69 107 69 267q0 195 -92 302q-82 97 -224 99zM1057 1746v-285h-265v285h265zM726 1746v-285h-268v285h268z" horiz-adv-x="1514" unicode="Ö"/>
<glyph glyph-name="multiply" d="M293 1159l238 -237l237 237l242 -241l-238 -237l238 -238l-242 -241l-237 238l-238 -238l-241 241l238 238l-238 237z" horiz-adv-x="1061" unicode="×"/>
<glyph glyph-name="Oslash" d="M1196 1440l240 -177l-79 -110q68 -85 101 -164q62 -148 62 -316q0 -311 -199 -509q-193 -194 -502 -194q-94 0 -161 15.5t-171 61.5l-77 -108l-242 174l89 126q-77 115 -109 213.5t-32 222.5q0 207 95 376q102 180 287 269q146 70 318 70q144 0 300 -61zM814 1076 q-140 0 -223 -98q-86 -102 -86 -292q0 -174 77 -285q80 -117 240 -117q145 0 228 104q81 102 81 273q0 178 -65 280q-84 133 -252 135z" horiz-adv-x="1649" unicode="Ø"/>
<glyph glyph-name="Ugrave" d="M1158 1365v-1365h-638q-185 1 -270 58q-89 57 -128.5 151t-39.5 249v907h375v-865q0 -106 30 -139t127 -33h169v1037h375zM353 1748h317l108 -287h-265z" horiz-adv-x="1240" unicode="Ù"/>
<glyph glyph-name="Uacute" d="M1158 1365v-1365h-638q-185 1 -270 58q-89 57 -128.5 151t-39.5 249v907h375v-865q0 -106 30 -139t127 -33h169v1037h375zM887 1748l-160 -287h-265l108 287h317z" horiz-adv-x="1240" unicode="Ú"/>
<glyph glyph-name="Ucircumflex" d="M1158 1365v-1365h-638q-185 1 -270 58q-89 57 -128.5 151t-39.5 249v907h375v-865q0 -106 30 -139t127 -33h169v1037h375zM751 1746l181 -285h-245l-68 113l-60 -113h-251l177 285h266z" horiz-adv-x="1240" unicode="Û"/>
<glyph glyph-name="Udieresis" d="M1158 1365v-1365h-638q-185 1 -270 58q-89 57 -128.5 151t-39.5 249v907h375v-865q0 -106 30 -139t127 -33h169v1037h375zM919 1746v-285h-265v285h265zM588 1746v-285h-268v285h268z" horiz-adv-x="1240" unicode="Ü"/>
<glyph glyph-name="Yacute" d="M1126 1365v-237q0 -228 -48 -338q-75 -171 -233 -247q-114 -55 -263 -55q-258 0 -408 165q-74 81 -103.5 179.5t-29.5 264.5v268h374v-340q0 -126 55 -173q46 -39 113 -39q86 0 127.5 55t41.5 169v328h374zM890 328v-328h-624v328h624zM851 1748l-160 -287h-265l108 287 h317z" horiz-adv-x="1167" unicode="Ý"/>
<glyph glyph-name="Thorn" d="M82 1365h375v-164h90q135 0 219 -23.5t148 -79.5q68 -59 106.5 -146.5t38.5 -179.5q0 -124 -67 -230q-65 -104 -162 -149t-253 -45h-120v-348h-375v676h425q94 0 125 22q38 28 38 78q0 52 -37 74.5t-123 22.5h-428v492z" horiz-adv-x="1100" unicode="Þ"/>
<glyph glyph-name="germandbls" d="M481 1365q-10 -54 -10 -87q0 -44 25.5 -90t91.5 -121q134 -153 184.5 -217.5t81.5 -122.5q71 -127 71 -254q0 -131 -66 -246q-130 -227 -467 -227h-378v328h335q105 0 150 53q37 44 37 93q0 60 -41 121.5t-206 251.5q-140 160 -175 246q-32 78 -32 144q0 47 14 128h385z M1433 1365q-10 -54 -10 -87q0 -44 25.5 -90t91.5 -121q134 -153 184.5 -217.5t82.5 -122.5q70 -127 70 -254q0 -131 -66 -246q-130 -227 -466 -227h-379v328h335q106 0 150 53q37 44 37 93q0 60 -41.5 122t-205.5 251q-140 160 -175 246q-32 78 -32 144q0 47 14 128h385z " horiz-adv-x="1903" unicode="ß"/>
<glyph glyph-name="agrave" d="M830 1365l427 -1365h-1284l277 840h340l-146 -512h351l-370 1037h405zM348 1748h317l108 -287h-265z" unicode="à"/>
<glyph glyph-name="aacute" d="M830 1365l427 -1365h-1284l277 840h340l-146 -512h351l-370 1037h405zM882 1748l-160 -287h-265l108 287h317z" unicode="á"/>
<glyph glyph-name="acircumflex" d="M830 1365l427 -1365h-1284l277 840h340l-146 -512h351l-370 1037h405zM746 1746l181 -285h-245l-68 113l-60 -113h-251l177 285h266z" unicode="â"/>
<glyph glyph-name="atilde" d="M830 1365l427 -1365h-1284l277 840h340l-146 -512h351l-370 1037h405zM366 1684q68 50 142 50q46 0 140 -32q75 -26 108 -26q60 0 108 55v-225q-58 -44 -131 -44q-49 0 -174 44q-42 14 -77 14q-36 0 -60.5 -12.5t-55.5 -45.5v222z" unicode="ã"/>
<glyph glyph-name="adieresis" d="M830 1365l427 -1365h-1284l277 840h340l-146 -512h351l-370 1037h405zM915 1746v-285h-265v285h265zM583 1746v-285h-268v285h268z" unicode="ä"/>
<glyph glyph-name="aring" d="M830 1365l427 -1365h-1284l277 840h340l-146 -512h351l-370 1037h405zM618 1849q89 0 151 -69q54 -59 54 -138q0 -93 -69 -155q-59 -53 -139 -53q-93 0 -155 69q-53 59 -53 140q0 90 69 153q58 53 142 53zM616 1702q-26 0 -44.5 -17.5t-18.5 -42.5q0 -26 18 -44t44 -18 t44 18t18 43t-17.5 42.5t-43.5 18.5z" unicode="å"/>
<glyph glyph-name="ae" d="M488 1365h1236v-328h-1124zM317 841h336l-142 -513h352l-189 513h1050v-328h-564l60 -185h504v-328h-1683z" horiz-adv-x="1879" unicode="æ"/>
<glyph glyph-name="ccedilla" d="M970 1365v-328h-138q-100 0 -167 -24t-120 -78q-101 -103 -101 -254q0 -142 97 -244q57 -60 126.5 -84.5t180.5 -24.5h122v-328h-184q-248 0 -407 95q-200 121 -282 348q-42 115 -42 235q0 157 70 305q53 112 140 198q127 123 302 161q103 23 233 23h170zM773 -95 l-161 -287h-264l108 287h317z" horiz-adv-x="1010" unicode="ç"/>
<glyph glyph-name="egrave" d="M1001 840v-328h-544v-184h544v-328h-919v840h919zM1001 1365v-328h-919v328h919zM274 1748h317l108 -287h-265z" horiz-adv-x="1083" unicode="è"/>
<glyph glyph-name="eacute" d="M1001 840v-328h-544v-184h544v-328h-919v840h919zM1001 1365v-328h-919v328h919zM809 1748l-160 -287h-265l108 287h317z" horiz-adv-x="1083" unicode="é"/>
<glyph glyph-name="ecircumflex" d="M1001 840v-328h-544v-184h544v-328h-919v840h919zM1001 1365v-328h-919v328h919zM672 1746l181 -285h-245l-68 113l-60 -113h-251l177 285h266z" horiz-adv-x="1083" unicode="ê"/>
<glyph glyph-name="edieresis" d="M1001 840v-328h-544v-184h544v-328h-919v840h919zM1001 1365v-328h-919v328h919zM841 1746v-285h-265v285h265zM510 1746v-285h-268v285h268z" horiz-adv-x="1083" unicode="ë"/>
<glyph glyph-name="igrave" d="M457 840v-840h-375v840h375zM457 1365v-328h-375v328h375zM3 1748h317l108 -287h-265z" horiz-adv-x="539" unicode="ì"/>
<glyph glyph-name="iacute" d="M457 840v-840h-375v840h375zM457 1365v-328h-375v328h375zM537 1748l-160 -287h-265l108 287h317z" horiz-adv-x="539" unicode="í"/>
<glyph glyph-name="icircumflex" d="M457 840v-840h-375v840h375zM457 1365v-328h-375v328h375zM401 1746l181 -285h-245l-68 113l-60 -113h-251l177 285h266z" horiz-adv-x="539" unicode="î"/>
<glyph glyph-name="idieresis" d="M457 840v-840h-375v840h375zM457 1365v-328h-375v328h375zM542 1733v-258h-238v258h238zM237 1733v-258h-240v258h240z" horiz-adv-x="539" unicode="ï"/>
<glyph glyph-name="eth" d="M110 1365h452q289 0 468 -145q137 -112 204 -279q50 -126 50 -263q0 -257 -170 -450q-119 -135 -264 -184q-129 -44 -305 -44h-435v328h375q181 0 282 82q59 47 93.5 121t34.5 152q0 80 -35.5 155.5t-95.5 123.5q-51 41 -114.5 58t-164.5 17h-375v328zM663 840v-328h-608 v328h608z" horiz-adv-x="1338" unicode="ð"/>
<glyph glyph-name="ntilde" d="M82 1365h591q131 0 215 -23t145 -76q64 -55 94 -139.5t30 -210.5v-916h-375v897q0 80 -32 110t-116 30h-177v-1037h-375v1365zM315 1684q68 50 142 50q46 0 140 -32q75 -26 108 -26q60 0 108 55v-225q-58 -44 -131 -44q-49 0 -174 44q-42 14 -77 14q-36 0 -60.5 -12.5 t-55.5 -45.5v222z" horiz-adv-x="1238" unicode="ñ"/>
<glyph glyph-name="ograve" d="M753 1392q181 0 340 -78q215 -106 308 -322q59 -138 59 -316q0 -303 -195 -504q-193 -199 -498 -199q-304 0 -502 190q-210 202 -210 514q0 193 86 357q96 184 287 282q144 73 325 76zM755 1078q-154 0 -236 -113q-75 -104 -75 -279q0 -184 87 -297q79 -102 229 -102 q162 0 242 123q69 107 69 267q0 195 -92 302q-82 97 -224 99zM490 1748h317l108 -287h-265z" horiz-adv-x="1514" unicode="ò"/>
<glyph glyph-name="oacute" d="M753 1392q181 0 340 -78q215 -106 308 -322q59 -138 59 -316q0 -303 -195 -504q-193 -199 -498 -199q-304 0 -502 190q-210 202 -210 514q0 193 86 357q96 184 287 282q144 73 325 76zM755 1078q-154 0 -236 -113q-75 -104 -75 -279q0 -184 87 -297q79 -102 229 -102 q162 0 242 123q69 107 69 267q0 195 -92 302q-82 97 -224 99zM1025 1748l-160 -287h-265l108 287h317z" horiz-adv-x="1514" unicode="ó"/>
<glyph glyph-name="ocircumflex" d="M753 1392q181 0 340 -78q215 -106 308 -322q59 -138 59 -316q0 -303 -195 -504q-193 -199 -498 -199q-304 0 -502 190q-210 202 -210 514q0 193 86 357q96 184 287 282q144 73 325 76zM755 1078q-154 0 -236 -113q-75 -104 -75 -279q0 -184 87 -297q79 -102 229 -102 q162 0 242 123q69 107 69 267q0 195 -92 302q-82 97 -224 99zM888 1746l181 -285h-245l-68 113l-60 -113h-251l177 285h266z" horiz-adv-x="1514" unicode="ô"/>
<glyph glyph-name="otilde" d="M753 1392q181 0 340 -78q215 -106 308 -322q59 -138 59 -316q0 -303 -195 -504q-193 -199 -498 -199q-304 0 -502 190q-210 202 -210 514q0 193 86 357q96 184 287 282q144 73 325 76zM755 1078q-154 0 -236 -113q-75 -104 -75 -279q0 -184 87 -297q79 -102 229 -102 q162 0 242 123q69 107 69 267q0 195 -92 302q-82 97 -224 99zM508 1684q68 50 142 50q46 0 140 -32q75 -26 108 -26q60 0 108 55v-225q-58 -44 -131 -44q-49 0 -174 44q-42 14 -77 14q-36 0 -60.5 -12.5t-55.5 -45.5v222z" horiz-adv-x="1514" unicode="õ"/>
<glyph glyph-name="odieresis" d="M753 1392q181 0 340 -78q215 -106 308 -322q59 -138 59 -316q0 -303 -195 -504q-193 -199 -498 -199q-304 0 -502 190q-210 202 -210 514q0 193 86 357q96 184 287 282q144 73 325 76zM755 1078q-154 0 -236 -113q-75 -104 -75 -279q0 -184 87 -297q79 -102 229 -102 q162 0 242 123q69 107 69 267q0 195 -92 302q-82 97 -224 99zM1057 1746v-285h-265v285h265zM726 1746v-285h-268v285h268z" horiz-adv-x="1514" unicode="ö"/>
<glyph glyph-name="divide" d="M532 1313q79 0 137 -56q60 -58 60 -143q0 -82 -59 -140q-58 -59 -140 -59t-141 59q-58 58 -58 139q0 86 60 144q58 56 141 56zM532 447q79 0 137 -56q60 -58 60 -143q0 -82 -59 -140q-58 -59 -140 -59t-141 59q-58 58 -58 140q0 85 60 143q58 56 141 56zM71 843h919v-324 h-919v324z" horiz-adv-x="1061" unicode="÷"/>
<glyph glyph-name="oslash" d="M1196 1440l240 -177l-79 -110q68 -85 101 -164q62 -148 62 -316q0 -311 -199 -509q-193 -194 -502 -194q-94 0 -161 15.5t-171 61.5l-77 -108l-242 174l89 126q-77 115 -109 213.5t-32 222.5q0 207 95 376q102 180 287 269q146 70 318 70q144 0 300 -61zM814 1076 q-140 0 -223 -98q-86 -102 -86 -292q0 -174 77 -285q80 -117 240 -117q145 0 228 104q81 102 81 273q0 178 -65 280q-84 133 -252 135z" horiz-adv-x="1649" unicode="ø"/>
<glyph glyph-name="ugrave" d="M1158 1365v-1365h-638q-185 1 -270 58q-89 57 -128.5 151t-39.5 249v907h375v-865q0 -106 30 -139t127 -33h169v1037h375zM353 1748h317l108 -287h-265z" horiz-adv-x="1240" unicode="ù"/>
<glyph glyph-name="uacute" d="M1158 1365v-1365h-638q-185 1 -270 58q-89 57 -128.5 151t-39.5 249v907h375v-865q0 -106 30 -139t127 -33h169v1037h375zM887 1748l-160 -287h-265l108 287h317z" horiz-adv-x="1240" unicode="ú"/>
<glyph glyph-name="ucircumflex" d="M1158 1365v-1365h-638q-185 1 -270 58q-89 57 -128.5 151t-39.5 249v907h375v-865q0 -106 30 -139t127 -33h169v1037h375zM751 1746l181 -285h-245l-68 113l-60 -113h-251l177 285h266z" horiz-adv-x="1240" unicode="û"/>
<glyph glyph-name="udieresis" d="M1158 1365v-1365h-638q-185 1 -270 58q-89 57 -128.5 151t-39.5 249v907h375v-865q0 -106 30 -139t127 -33h169v1037h375zM919 1746v-285h-265v285h265zM588 1746v-285h-268v285h268z" horiz-adv-x="1240" unicode="ü"/>
<glyph glyph-name="yacute" d="M1126 1365v-237q0 -228 -48 -338q-75 -171 -233 -247q-114 -55 -263 -55q-258 0 -408 165q-74 81 -103.5 179.5t-29.5 264.5v268h374v-340q0 -126 55 -173q46 -39 113 -39q86 0 127.5 55t41.5 169v328h374zM890 328v-328h-624v328h624zM851 1748l-160 -287h-265l108 287 h317z" horiz-adv-x="1167" unicode="ý"/>
<glyph glyph-name="thorn" d="M82 1365h375v-164h90q135 0 219 -23.5t148 -79.5q68 -59 106.5 -146.5t38.5 -179.5q0 -124 -67 -230q-65 -104 -162 -149t-253 -45h-120v-348h-375v676h425q94 0 125 22q38 28 38 78q0 52 -37 74.5t-123 22.5h-428v492z" horiz-adv-x="1100" unicode="þ"/>
<glyph glyph-name="circumflex" d="M643 1746l181 -285h-245l-68 113l-60 -113h-251l177 285h266z" horiz-adv-x="1024" unicode="ˆ"/>
<glyph glyph-name="tilde" d="M263 1684q68 50 142 50q46 0 140 -32q75 -26 108 -26q60 0 108 55v-225q-58 -44 -131 -44q-49 0 -174 44q-42 14 -77 14q-36 0 -60.5 -12.5t-55.5 -45.5v222z" horiz-adv-x="1024" unicode="˜"/>
<glyph glyph-name="glyph294" d="M785 1733v-258h-238v258h238zM480 1733v-258h-240v258h240z" horiz-adv-x="1024"/>
</font>
</defs>
</svg>
