<?xml version="1.0" standalone="no"?>
<!DOCTYPE svg PUBLIC "-//W3C//DTD SVG 1.1//EN" "http://www.w3.org/Graphics/SVG/1.1/DTD/svg11.dtd" >
<svg xmlns="http://www.w3.org/2000/svg" xmlns:xlink="http://www.w3.org/1999/xlink" version="1.1">
<metadata>
Created by FontForge 20161013 at Sat Sep 20 01:31:32 1997
 By ,,,
(c) Stock Graphics
</metadata>
<defs>
<font id="OpticonOne1" horiz-adv-x="1577" >
  <font-face 
    font-family="Opticon"
    font-weight="400"
    font-stretch="normal"
    units-per-em="2700"
    panose-1="0 0 4 0 0 0 0 0 0 0"
    ascent="2160"
    descent="-540"
    x-height="1220"
    cap-height="2242"
    bbox="-259 -2242 3560 3024"
    underline-thickness="14"
    underline-position="-156"
    unicode-range="U+0020-F002"
  />
<missing-glyph horiz-adv-x="1350" 
d="M169 0v1047h1012v-1047h-1012zM338 169h675v709h-675v-709z" />
    <glyph glyph-name=".notdef" horiz-adv-x="1350" 
d="M169 0v1047h1012v-1047h-1012zM338 169h675v709h-675v-709z" />
    <glyph glyph-name=".null" horiz-adv-x="0" 
 />
    <glyph glyph-name="glyph2" horiz-adv-x="222" 
 />
    <glyph glyph-name="space" unicode=" " horiz-adv-x="222" 
 />
    <glyph glyph-name="exclam" unicode="!" horiz-adv-x="724" 
d="M297 540l-32 1701l216 1l-44 -1702h-140zM274 0l1 173h195v-173h-196z" />
    <glyph glyph-name="quotedbl" unicode="&#x22;" horiz-adv-x="1091" 
d="M281 1874v367l173 1v-368h-173zM659 1874v368l173 -1v-367h-173z" />
    <glyph glyph-name="numbersign" unicode="#" horiz-adv-x="2997" 
d="M2565 1895l-265 -464h540v-184h-648l-324 -577h540v-184h-642l-313 -556l-163 92l265 464h-659l-318 -556l-157 92l259 464h-534v184h642l324 577h-534v184h642l314 556l162 -92l-270 -464h664l318 556zM1669 656l329 613h-686l-326 -613h683z" />
    <glyph glyph-name="dollar" unicode="$" horiz-adv-x="1615" 
d="M1314 970q166 -166 166 -414q-20 -184 -152 -316q-151 -151 -410 -202v-130h-217v119q-287 25 -474 194v0l-97 87l140 162l97 -87q132 -113 335 -140v745q-221 51 -396 191q-166 166 -166 413q20 185 153 317q55 54 112 89q135 81 297 113v135h216l1 -124
q291 -25 474 -194l-140 -162q-135 117 -335 135v-740q298 -68 396 -191zM470 1323q82 -75 232 -119l-1 691q-88 -22 -183 -81q-42 -26 -76 -60q-84 -84 -86 -177q-3 -138 92 -233q18 -18 22 -21zM1264 572q5 136 -92 233q-18 18 -22 21q-72 72 -232 119l1 -691q99 25 183 81
q48 32 75 59q84 83 87 178z" />
    <glyph glyph-name="percent" unicode="%" horiz-adv-x="1976" 
d="M1463 723q153 0 260.5 -107.5t107.5 -259.5q0 -155 -106.5 -263.5t-261.5 -108.5q-157 0 -264.5 107.5t-107.5 264.5q0 154 106.5 260.5t265.5 106.5zM1463 162q80 0 134 56.5t55 137.5q1 72 -43 116q-10 10 -16 14q-11 14 -13 16q-43 43 -117 43q-78 0 -122 -44
q-10 -10 -13 -15q-59 -58 -59 -130q0 -77 58.5 -135.5t135.5 -58.5zM1463 1988l157 -94l-1112 -1964l-157 92zM508 1199q-153 0 -265 108q-108 104 -108 259q0 158 107.5 265.5t265.5 107.5q157 0 264.5 -107.5t107.5 -265.5q0 -154 -108.5 -260.5t-263.5 -106.5zM319 1566
q0 -77 56 -133t133 -56q79 0 136.5 55t57.5 134q0 77 -58.5 135.5t-135.5 58.5q-79 0 -134 -57.5t-55 -136.5z" />
    <glyph glyph-name="ampersand" unicode="&#x26;" horiz-adv-x="1685" 
d="M1544 475q0 -113 -75 -205l151 -150l-113 -115l-151 157q-220 -162 -546 -162q-229 0 -423 103q-102 54 -160 113q-120 122 -120 259q0 205 252 328q94 46 257 110q-114 138 -114 356q0 258 140 398q77 77 168 77q101 0 200 -81q135 -135 135 -394q0 -243 -147 -389
q-31 -31 -80 -65l437 -432q27 52 27 92v22h162v-22zM745 999l60 -65h5q50 21 90 61q99 99 99 274q0 139 -85 281q-40 32 -104 32q-31 -4 -59 -32q-92 -116 -92 -281q0 -177 86 -270zM810 162q275 0 437 103l-507 507q-314 -79 -422 -187q-53 -53 -53 -111q0 -75 70 -144
q171 -168 475 -168z" />
    <glyph glyph-name="quotesingle" unicode="'" horiz-adv-x="648" 
d="M243 1874v367h173v-367h-173z" />
    <glyph glyph-name="parenleft" unicode="(" horiz-adv-x="1021" 
d="M300 977v-21l542 -859l-150 -97l-535 858q-27 46 -27 109q0 57 27 102l540 897l152 -98q-97 -157 -291 -472l-189 -305q-59 -96 -69 -114z" />
    <glyph glyph-name="parenright" unicode=")" horiz-adv-x="1021" 
d="M721 977q-10 18 -109 178l-439 713l151 98l540 -897q27 -45 27 -102q0 -63 -27 -109q-3 -5 -163 -262l-371 -596l-153 97l544 859v21z" />
    <glyph glyph-name="asterisk" unicode="*" horiz-adv-x="821" 
d="M475 1701h-129v162l-141 -81l-65 113l141 76l-141 81l65 113l141 -81v157l129 1l-1 -158l136 81l65 -113l-135 -81l135 -76l-65 -113l-135 81v-162z" />
    <glyph glyph-name="plus" unicode="+" horiz-adv-x="1207" 
d="M510 869v351h173l-1 -351h352v-172h-351v-351h-173v351h-351v172h351z" />
    <glyph glyph-name="comma" unicode="," horiz-adv-x="648" 
d="M86 -38l281 281l119 -119l-281 -281z" />
    <glyph glyph-name="hyphen" unicode="-" horiz-adv-x="923" 
d="M184 680v173h540v-173h-540z" />
    <glyph glyph-name="hyphen" unicode="&#x2010;" horiz-adv-x="923" 
d="M184 680v173h540v-173h-540z" />
    <glyph glyph-name="period" unicode="." horiz-adv-x="583" 
d="M194 0v173h195v-173h-195z" />
    <glyph glyph-name="slash" unicode="/" horiz-adv-x="1253" 
d="M-11 5l1113 1966l156 -92l-1118 -1955z" />
    <glyph glyph-name="zero" unicode="0" horiz-adv-x="1647" 
d="M1183 1032q105 -119 156 -219q135 -262 135 -602t-135 -603q-63 -122 -156 -218q-7 -8 -17 -19q-143 -143 -340 -143q-194 0 -337 141q-6 8 -19 21q-187 187 -257 503q-35 155 -35 318q0 534 287 821q162 162 361 162q198 0 340 -144q6 -6 17 -18zM826 -567
q130 0 237 133q82 101 132 250q63 185 63 395q0 188 -52 363q-61 203 -175 317q-98 98 -205 98q-130 0 -239 -135q-83 -104 -132 -254q-61 -185 -61 -389q0 -277 107 -504q129 -274 325 -274z" />
    <glyph glyph-name="one" unicode="1" horiz-adv-x="788" 
d="M189 1199h378l-1 -108l1 -1183h-216v1075h-161z" />
    <glyph glyph-name="two" unicode="2" horiz-adv-x="1571" 
d="M967 578q0 -259 -195 -454h637v-216h-1123q-2 0 -5 -1h-6v0l-20 1l-1 216h32q203 0 339 135t136 319q0 162 -140.5 302.5t-346.5 140.5h-19l-1 216h21q136 0 262 -48q133 -50 218 -140q6 -4 17 -18q195 -195 195 -453z" />
    <glyph glyph-name="three" unicode="3" horiz-adv-x="1420" 
d="M697 464q227 -87 345 -205q162 -162 162 -367q0 -194 -162 -356l-14 -14q-129 -129 -341 -203q-221 -77 -409 -77q-23 0 -46 1l-21 1v216h21q440 0 656 216q100 100 100 216q-1 136 -129 245q-100 85 -252 136q-155 52 -324 52q-25 0 -51 -1v216q252 -12 378 114
q54 54 54 113q0 129 -212 194q-105 33 -220 33h-21v216l21 1q140 7 298 -52q133 -50 231 -144q9 -6 22 -21q97 -95 97 -227q0 -130 -119 -249q-43 -43 -64 -54z" />
    <glyph glyph-name="four" unicode="4" horiz-adv-x="1129" 
d="M983 1220v-2214h-216v994h-744l128 173zM432 204l335 1v416z" />
    <glyph glyph-name="five" unicode="5" horiz-adv-x="1496" 
d="M470 567q199 -1 393 -79q201 -80 320 -196q162 -158 162 -368q0 -194 -162 -356q-187 -187 -501 -257q-154 -35 -320 -35h-107v222l107 -6q181 -10 355 42q191 58 308 175q104 104 104 215q0 130 -135 240q-104 85 -252 136q-174 60 -380 56l-108 -2v845h691v-216h-475
v-416z" />
    <glyph glyph-name="six" unicode="6" horiz-adv-x="1685" 
d="M859 432q346 0 540 -194q4 -3 9 -8l6 -5q93 -92 93 -236q0 -155 -100 -240l-8 -8q-195 -195 -541 -195q-160 0 -299 52q-133 51 -230 142q-11 7 -17 16q-46 43 -74 110q-27 62 -27 123v1210h216v-913q161 146 432 146zM859 -238q263 0 390 127q50 50 50 100
q0 128 -212 194q-105 33 -228 33q-257 0 -378 -121q-54 -54 -54 -106q0 -126 215 -194q102 -33 217 -33z" />
    <glyph glyph-name="seven" unicode="7" horiz-adv-x="1053" 
d="M86 1199h881v-108l-346 -2047h-208l324 1939h-651v216z" />
    <glyph glyph-name="eight" unicode="8" horiz-adv-x="1647" 
d="M1139 443q124 -77 152 -108q183 -199 183 -454q0 -271 -184 -453q-6 -7 -19 -21q-174 -174 -434 -174q-271 0 -445 174q-76 88 -88 105q-39 53 -68 123q-47 119 -47 245q0 357 335 563q-130 132 -130 313q0 187 128 315t315 128q173 0 284 -111q12 -12 17 -19
q131 -130 131 -313t-130 -313zM664 595q77 -77 173 -77q82 0 143 60q73 72 73 178q0 98 -64.5 162.5t-151.5 64.5q-98 0 -162.5 -64.5t-64.5 -162.5q0 -107 54 -161zM837 -551q179 0 299.5 125.5t121.5 305.5q1 93 -30 174.5t-89 139.5q-131 130 -302 130q-182 0 -313 -130
q-119 -118 -119 -314q0 -181 119 -301q129 -130 313 -130z" />
    <glyph glyph-name="nine" unicode="9" horiz-adv-x="1571" 
d="M767 319q-342 0 -540 194q-5 5 -17 15q-92 93 -91 233q1 144 93 236q5 5 15 13q194 194 540 194q161 0 301 -52q117 -44 228 -142q5 -3 18 -16q101 -101 101 -232v-1210h-216v912q-164 -145 -432 -145zM767 988q-265 0 -392 -127q-48 -48 -48 -100q0 -54 51 -105
q121 -121 389 -121q260 0 378 120q54 55 54 106q0 73 -88 136q-48 34 -124 58q-103 33 -220 33z" />
    <glyph glyph-name="colon" unicode=":" horiz-adv-x="583" 
d="M197 0v173h195v-173h-195zM197 594v173h195v-173h-195z" />
    <glyph glyph-name="semicolon" unicode=";" horiz-adv-x="583" 
d="M190 594l-1 173h194v-173h-193zM124 -38l281 281l119 -119l-281 -281z" />
    <glyph glyph-name="less" unicode="&#x3c;" horiz-adv-x="805" 
d="M589 1647l129 -130l-405 -356l405 -356l-129 -130l-508 486l65 65z" />
    <glyph glyph-name="equal" unicode="=" horiz-adv-x="1091" 
d="M86 929v173h875v-174zM86 437v173h875l1 -173h-876z" />
    <glyph glyph-name="greater" unicode="&#x3e;" horiz-adv-x="805" 
d="M211 1647l507 -486l-65 -65l-442 -421l-130 130l405 356l-405 356z" />
    <glyph glyph-name="question" unicode="?" horiz-adv-x="1118" 
d="M308 1836q336 0 518 -184q109 -110 108 -237q-2 -236 -293 -358q-111 -46 -247 -58v-459h-173v626h87q264 0 398 136q56 57 56 113t-56 113q-133 135 -398 135h-22v173h22zM211 0v173h194l-1 -173h-193z" />
    <glyph glyph-name="at" unicode="@" horiz-adv-x="2749" 
d="M2750 2403l162 -91l-578 -994h259v-184h-362l-551 -950h260v-184h-573l81 135zM1173 -43l-157 86l54 97q-230 -97 -464 -97q-277 0 -411 133q-25 25 -48 62q-33 54 -33 127q1 142 131 274q172 175 479 252q148 38 287 38q277 0 408 -131q12 -12 18 -19l206 355h-540v184
h858l-81 -141zM606 227q407 0 617 210q47 47 74 98v0q24 40 23 73q0 26 -7 40q-6 9 -19 22q-82 81 -283 81q-167 0 -340 -62q-187 -67 -296 -176q-77 -77 -73 -146q-3 -32 24 -59q82 -81 280 -81z" />
    <glyph glyph-name="A" unicode="A" horiz-adv-x="1987" 
d="M913 2290l1107 -2295l-195 -98l-502 1043h-772l-459 -1038l-195 87zM637 1156h594l-308 629z" />
    <glyph glyph-name="B" unicode="B" horiz-adv-x="1760" 
d="M1231 1172q304 -112 405 -353q43 -103 43 -209q0 -217 -166 -383q-227 -227 -595 -227h-761v2242l108 -1h540q280 0 469 -189q178 -178 178 -427q0 -116 -46 -224t-133 -197q-22 -22 -42 -32zM1123 1901q-128 124 -318 124h-422v-815h422q192 0 312 115t120 300
q0 166 -114 276zM918 216q289 0 443 154q102 102 102 240q0 155 -102 259q-154 157 -442 157h-536v-810h535z" />
    <glyph glyph-name="C" unicode="C" horiz-adv-x="2279" 
d="M1328 124q378 0 670 292l157 -151q-355 -351 -827 -351q-475 0 -815 340q-351 351 -351 848q0 318 156 592t428 437q267 159 582 159q475 0 816 -341l-151 -151q-281 281 -665 281q-372 0 -658 -286q-278 -278 -278 -691q0 -416 278 -692q288 -286 658 -286z" />
    <glyph glyph-name="D" unicode="D" horiz-adv-x="2068" 
d="M961 2241q362 0 643 -281q336 -336 336 -842q0 -243 -86.5 -461.5t-249.5 -381.5q-275 -275 -642 -275h-784l-1 108v2133h784zM961 216q277 0 484 203q37 36 72 83q195 259 195 616q0 437 -254 691q-141 141 -320 190q-88 25 -177 25l-557 1l1 -1809h556z" />
    <glyph glyph-name="E" unicode="E" horiz-adv-x="1836" 
d="M383 1058v-842h1307v-216h-1533v2242l108 -1h972v-211h-854v-756l1080 -1v-214z" />
    <glyph glyph-name="F" unicode="F" 
d="M134 0l1 108v2133h1081v-211l-854 -1v-755h1080v-216h-1080v-1058h-228z" />
    <glyph glyph-name="G" unicode="G" horiz-adv-x="2268" 
d="M1253 1237h867v-951l-33 -32q-118 -114 -244 -187q-273 -159 -590 -159q-247 0 -475 103t-391 289q-184 209 -255 483q-40 154 -40 313q0 316 157 594.5t425.5 436t578.5 157.5q475 0 815 -340l-151 -151q-275 275 -664 275q-384 0 -658 -274t-275 -698q0 -422 275 -697
t658 -275q371 0 642 254v643h-642v216z" />
    <glyph glyph-name="H" unicode="H" horiz-adv-x="2020" 
d="M1625 1274v968l227 -1l1 -2241h-228v1058l-1231 1l1 -1059h-228v2242l227 -1v-968z" />
    <glyph glyph-name="I" unicode="I" horiz-adv-x="783" 
d="M529 2242v-2242h-259v2242h259z" />
    <glyph glyph-name="J" unicode="J" horiz-adv-x="1771" 
d="M1323 687v1554h238v-1555q0 -310 -216 -519q-102 -99 -250 -160q-134 -56 -280 -56q-306 0 -522.5 214.5t-216.5 520.5v21l216 -1v-19q0 -220 151 -368q155 -152 372 -152q209 0 356 147q152 152 152 373z" />
    <glyph glyph-name="K" unicode="K" horiz-adv-x="1971" 
d="M383 815v-815h-226v2242l226 -1v-1080l972 1155l168 -140l-670 -799l1106 -1307l-161 -140l-1085 1280z" />
    <glyph glyph-name="L" unicode="L" horiz-adv-x="1804" 
d="M432 2246v-2030h1193v-216h-1452v2246h259z" />
    <glyph glyph-name="M" unicode="M" horiz-adv-x="3067" 
d="M2954 0h-227v1701l-1140 -1679l-91 129l-1080 1528v-1679h-226l-1 2354l211 -275l1182 -1674l1372 1998v-2403z" />
    <glyph glyph-name="N" unicode="N" horiz-adv-x="2608" 
d="M373 2203l1836 -1852v1891l226 -1v-2419l-194 189l-1836 1852l-1 -1863h-226l-1 2392z" />
    <glyph glyph-name="O" unicode="O" horiz-adv-x="2376" 
d="M1172 2284q411 0 712 -302q231 -232 316 -561q42 -162 42 -325q0 -528 -357 -885q-303 -303 -713 -303q-409 0 -713 303q-229 228 -314 558q-42 160 -42 327q0 346 166 635q228 399 640 516q130 37 263 37zM1172 113q314 0 549 235q293 293 293 748q0 449 -281 729
q-255 254 -561 254q-308 0 -562 -254q-280 -280 -280 -729q0 -448 280 -729q253 -254 562 -254z" />
    <glyph glyph-name="P" unicode="P" horiz-adv-x="1685" 
d="M842 2241q309 0 519 -211q183 -184 183 -432q0 -253 -184 -437q-211 -211 -518 -211h-475l1 -950h-228v2242l108 -1h594zM842 1166q218 0 354 137q122 123 122 295q0 178 -114 292q-135 135 -363 135l-474 -1v-858h475z" />
    <glyph glyph-name="Q" unicode="Q" horiz-adv-x="2414" 
d="M1247 2290q403 0 712 -308q358 -357 358 -880q0 -529 -357 -886q-242 -242 -604 -286v-157h-217v157q-362 43 -604 286q-357 359 -357 886t356 883q305 305 713 305zM1355 107q250 40 440 230q295 295 295 748q0 447 -281 729q-253 254 -562 254q-306 0 -561 -254
q-281 -280 -281 -729q0 -212 72 -403q77 -200 209 -331q205 -203 453 -243v327h217z" />
    <glyph glyph-name="R" unicode="R" horiz-adv-x="1895" 
d="M1273 1145q-2 -3 -15 -16q-89 -89 -216 -135l918 -913l-163 -173l-1036 1042h-367l1 -950h-228v2246h648q270 0 459 -190t189 -459q0 -129 -49 -245q-44 -104 -141 -207zM394 2030v-864h421q179 0 300.5 126.5t121.5 305.5q0 185 -118.5 308.5t-303.5 123.5h-421z" />
    <glyph glyph-name="S" unicode="S" horiz-adv-x="1793" 
d="M1442 972q15 -14 25 -24q180 -180 180 -457q0 -182 -154 -337q-56 -56 -143 -111q-220 -138 -494 -138q-40 0 -78 3q-328 26 -535 216v0l-113 97l140 162l113 -97v-5q154 -137 411 -161q9 0 27.5 -2t27.5 -2q215 0 388 111q50 32 84 66q97 97 99 220q4 176 -105 285
q-12 12 -19 17q-98 90 -421 162q-371 83 -519 216q-6 9 -15 15q-190 194 -190 466q0 185 157 342q63 63 140 112q214 136 494 138q198 1 375 -71q137 -55 238 -148l-146 -162q-153 147 -406 162l-24 2h-29q-226 0 -388 -100q-44 -27 -82 -65q-102 -102 -102 -226
q0 -181 106 -287q5 -5 18 -16q110 -99 421 -167q376 -82 519 -216z" />
    <glyph glyph-name="T" unicode="T" horiz-adv-x="2106" 
d="M1161 0h-259v2041h-859v205h1944v-205h-826v-2041z" />
    <glyph glyph-name="U" unicode="U" horiz-adv-x="2360" 
d="M200 2241l227 1v-1211q0 -421 232 -653q211 -211 518 -211q312 0 516 204q240 240 240 660v1210h227v-1210q0 -496 -308 -804q-181 -181 -427 -245q-119 -31 -248 -31q-399 0 -676 276q-302 302 -302 804z" />
    <glyph glyph-name="V" unicode="V" horiz-adv-x="1944" 
d="M1971 2246l-1053 -2397l-955 2403l231 75l735 -1927l837 1933z" />
    <glyph glyph-name="W" unicode="W" horiz-adv-x="3191" 
d="M3154 2241l-1064 -2398l-513 1307l-514 -1307l-1063 2399l211 85l842 -1933l410 1042l-334 810l216 80l232 -609l237 610l211 -81l-329 -810l405 -1042l842 1932z" />
    <glyph glyph-name="X" unicode="X" horiz-adv-x="1998" 
d="M1825 2220l-702 -1032l789 -1182l-192 -119l-726 1117l-737 -1117l-193 118l800 1183l-686 1031l192 119l621 -964l643 964z" />
    <glyph glyph-name="Y" unicode="Y" horiz-adv-x="1841" 
d="M1620 2338l205 -97l-1172 -2338l-216 97l373 713l-783 1529l216 85l686 -1387z" />
    <glyph glyph-name="Z" unicode="Z" horiz-adv-x="2187" 
d="M1593 2024h-1393v217h1847l-1539 -2025h1576l1 -216h-2031z" />
    <glyph glyph-name="bracketleft" unicode="[" horiz-adv-x="734" 
d="M626 2182h-313v-1998h313v-184h-507v2360h507v-178z" />
    <glyph glyph-name="backslash" unicode="\" horiz-adv-x="1264" 
d="M-11 1879l162 92l1113 -1966l-146 -75z" />
    <glyph glyph-name="bracketright" unicode="]" horiz-adv-x="734" 
d="M119 2182v178h507v-2360h-507v184l313 1v1996z" />
    <glyph glyph-name="asciicircum" unicode="^" horiz-adv-x="1183" 
d="M1080 1858l-135 -125l-356 398l-357 -399l-129 126l486 507l64 -65z" />
    <glyph glyph-name="underscore" unicode="_" horiz-adv-x="1409" 
d="M0 -373v174l1415 -1v-173h-1415z" />
    <glyph glyph-name="grave" unicode="`" horiz-adv-x="1220" 
d="M162 2980l956 -469l-60 -103l-972 411z" />
    <glyph glyph-name="a" unicode="a" horiz-adv-x="1523" 
d="M724 -49q-356 0 -546 189q-113 112 -113 249q0 138 112 250q193 193 547 193q288 0 475 -135v340h-610v183h788v-1317h-178v183q-187 -135 -475 -135zM313 518q-58 -67 -58 -129q0 -65 58 -132q145 -137 421 -138q285 -1 424 136q62 61 62 134q0 71 -53 124
q-11 11 -17 16q-135 135 -416 136q-266 1 -421 -147z" />
    <glyph glyph-name="b" unicode="b" horiz-adv-x="1496" 
d="M297 151v-249l-177 1v2451l177 1v-1297q206 206 481 206q269 0 464 -195q190 -190 189 -464q-1 -278 -188 -466t-465 -188q-281 0 -470 189q-2 2 -10 7q0 1 -1 2v2zM437 950q-5 -6 -15 -13q-136 -136 -136 -332t151 -346q130 -129 341 -129q195 0 329.5 139.5
t134.5 335.5q0 206 -130 335q-146 145 -334 145q-207 0 -341 -135z" />
    <glyph glyph-name="c" unicode="c" horiz-adv-x="1285" 
d="M1096 264l129 -129q-197 -189 -469 -189q-275 0 -464 189t-189 464q0 272 191 463t463 191q265 0 458 -184l-124 -129q-136 136 -335 136q-197 0 -329 -131q-4 -5 -14 -13q-121 -121 -121 -333q0 -205 130 -340t334 -135q200 0 340 140z" />
    <glyph glyph-name="d" unicode="d" horiz-adv-x="1512" 
d="M734 -49q-277 0 -464 189q-194 196 -194 465q0 274 192.5 466.5t465.5 192.5q149 0 260 -53q81 -39 216 -152v1295l183 1v-2453l-183 1v248l-11 -11q-189 -189 -465 -189zM400 950q-5 -5 -14 -12q-116 -116 -116 -333q0 -214 125 -343q126 -132 339 -132q198 0 342 140
t144 335q0 94 -40 189q-42 101 -111 156q-135 135 -335 135q-199 0 -334 -135z" />
    <glyph glyph-name="e" unicode="e" horiz-adv-x="1415" 
d="M1351 0h-1227v1220h794v-178h-599v-340h814v-178h-814v-339h1031z" />
    <glyph glyph-name="f" unicode="f" horiz-adv-x="842" 
d="M513 2176v-956h254v-178h-254v-1042h-200v1042h-248v178h248v1134h519v-178h-319z" />
    <glyph glyph-name="g" unicode="g" horiz-adv-x="1496" 
d="M837 -162q395 -26 632 -132q291 -130 291 -328q0 -208 -315 -344q-286 -124 -694 -124q-410 0 -693 122q-317 137 -317 347q0 196 293 326q263 117 625 132v121q-226 25 -378 177q-189 189 -189 465q0 273 194 466t465 193q221 0 394 -130l70 70l130 -130l-72 -70
q131 -168 131 -400q0 -278 -188 -464q-154 -153 -379 -178v-119zM416 248q85 -85 243 -114v82h178v-81q146 32 246 132q133 133 133 332q0 171 -71 270l-60 -59l-129 130l59 59q-115 77 -264 76q-214 -1 -342 -131t-128 -345q0 -216 135 -351zM751 -907q368 0 622 109
q113 49 164 101q40 41 40 76q0 36 -41 78q-98 100 -330 158q-183 45 -369 50v-156h-178v159q-184 -3 -361 -48q-223 -56 -323 -156q-45 -45 -45 -86q0 -36 41 -77q109 -109 370 -165q201 -43 410 -43z" />
    <glyph glyph-name="h" unicode="h" horiz-adv-x="1550" 
d="M788 1091q-208 0 -336 -136t-128 -345v-610h-194v2360h183v-1296q205 205 475 205q271 0 465 -194t194 -465v-610h-194v610q0 215 -124 347q-127 134 -341 134z" />
    <glyph glyph-name="i" unicode="i" horiz-adv-x="610" 
d="M408 1220l-1 -1220h-203l-1 1220h205zM408 1771v-184h-205v184h205z" />
    <glyph glyph-name="j" unicode="j" horiz-adv-x="610" 
d="M416 -1048h-523l-1 179h319v2089h205v-2268zM416 1766v-184h-205v184h205z" />
    <glyph glyph-name="k" unicode="k" horiz-adv-x="1215" 
d="M351 464v-464h-194v2360h194v-1636l508 540l135 -130l-470 -486l802 -594l-123 -146l-803 610z" />
    <glyph glyph-name="l" unicode="l" horiz-adv-x="729" 
d="M124 0v2360h195v-2175l329 -1v-184h-524z" />
    <glyph glyph-name="m" unicode="m" horiz-adv-x="2187" 
d="M92 1269l1010 -1102l993 1106l-1 -1273h-193v805l-794 -902l-65 75l-756 832v-810h-194v1269z" />
    <glyph glyph-name="n" unicode="n" horiz-adv-x="1690" 
d="M1598 1226v-1318l-156 114l-1156 885v-907h-194v1269l1317 -999v956h189z" />
    <glyph glyph-name="o" unicode="o" horiz-adv-x="1496" 
d="M778 -54q-270 0 -470 189q-89 84 -140 214q-48 122 -48 250q0 274 192.5 466.5t466.5 192.5q273 0 462.5 -188.5t188.5 -470.5q0 -281 -188 -464q-194 -189 -464 -189zM443 940q-135 -136 -135 -341q0 -199 135 -334q151 -152 335 -152t319 135q145 145 145 351
q0 211 -130 341q-145 145 -334 145q-190 0 -326 -136z" />
    <glyph glyph-name="p" unicode="p" horiz-adv-x="1512" 
d="M313 157v-1199h-183l-1 2300h184v-194q205 205 475 205q271 0 465 -194t194 -465q0 -198 -111.5 -364t-294.5 -240q-120 -49 -253 -49q-275 0 -464 189l-9 6q-2 2 -2 5zM448 956q-5 -5 -16 -15q-129 -129 -130 -331q-1 -89 38 -185q41 -101 108 -166q129 -125 340 -124
q197 1 336.5 140.5t139.5 334.5q0 197 -124 319q-12 12 -17 16q-147 147 -335 146q-206 -1 -340 -135z" />
    <glyph glyph-name="q" unicode="q" horiz-adv-x="1534" 
d="M761 -54q-276 0 -464 188q-194 194 -194 465q0 274 192.5 466.5t466.5 192.5q132 0 252 -51q100 -42 212 -144q3 -2 11 -10v340h183v-2435h-183v1188q-7 -6 -12 -11q-187 -189 -464 -189zM421 937q-121 -121 -120 -338q1 -231 120 -345q135 -130 340 -130q208 0 335 122
q153 147 153 353q0 194 -135 329q-12 12 -18 17q-131 131 -335 130q-203 -1 -340 -138z" />
    <glyph glyph-name="r" unicode="r" horiz-adv-x="859" 
d="M107 0l1 1269h194v-273q12 15 40 43q182 184 436 184h21v-174l-20 1q-208 10 -347 -129l-11 -11q-119 -119 -119 -286l1 -624h-196z" />
    <glyph glyph-name="s" unicode="s" horiz-adv-x="913" 
d="M243 248l43 -48q12 -14 18 -20q44 -44 106 -50q11 0 22 -1q62 1 119 48q12 10 19 17q51 51 51 114v22q0 66 -38 113q-43 42 -129 65q-158 42 -230 114q-5 5 -24 26q-79 88 -81 232q0 7 1 33q6 135 103 231q15 15 31 28q104 86 232 86q22 0 39 -5q125 -7 224 -105
q8 -8 23 -25l-140 -113q-61 59 -130 59q-5 6 -16 6q-64 0 -119 -43q-64 -64 -70 -130v-22q0 -75 43 -118q5 -7 16 -19q34 -34 114 -52q153 -33 231 -111q8 -8 17 -18q87 -114 87 -233v-37q-17 -157 -141 -260q-97 -81 -237 -81h-33q-135 15 -221 100q-14 14 -27 30v0l-39 49
z" />
    <glyph glyph-name="t" unicode="t" horiz-adv-x="956" 
d="M362 1048h-320v178h320v1134h194v-1134l330 -1v-176l-330 -1v-864l330 1l-1 -185h-523v1048z" />
    <glyph glyph-name="u" unicode="u" horiz-adv-x="1550" 
d="M775 -49q-276 0 -465 184q-89 87 -143 217q-51 124 -51 253v615h195v-615q0 -213 130 -340q138 -135 334 -135q197 0 330.5 138.5t133.5 336.5v615h195v-615q0 -281 -194 -470q-189 -184 -465 -184z" />
    <glyph glyph-name="v" unicode="v" horiz-adv-x="1264" 
d="M670 -103l-81 152l-589 1123l181 87l489 -967l499 966l170 -86z" />
    <glyph glyph-name="w" unicode="w" horiz-adv-x="2003" 
d="M1042 626l-378 -729l-664 1275l173 86l502 -972l265 513l-206 373l179 86l129 -259l130 259l167 -86l-193 -373l250 -515l521 974l167 -86l-675 -1275z" />
    <glyph glyph-name="x" unicode="x" horiz-adv-x="1280" 
d="M146 -92l-151 114l496 599l-421 524l151 113l389 -502l400 502l151 -112l-437 -525l496 -599l-159 -114l-451 583z" />
    <glyph glyph-name="y" unicode="y" horiz-adv-x="1269" 
d="M945 -1042v972l-983 1216l141 112l842 -1037v1037h194v-2300h-194z" />
    <glyph glyph-name="z" unicode="z" horiz-adv-x="1555" 
d="M464 184l951 1l1 -185h-1389l151 151l848 886h-832v183h1269z" />
    <glyph glyph-name="braceleft" unicode="{" horiz-adv-x="902" 
d="M255 1188q-1 -5 -1 -22l675 -1074l-146 -92q-77 120 -240 380l-435 700q-27 42 -27 97q0 59 26 103l563 961l151 -86q-41 -85 -326 -564z" />
    <glyph glyph-name="bar" unicode="|" horiz-adv-x="783" 
d="M518 2354v-3348h-237v3348h237z" />
    <glyph glyph-name="braceright" unicode="}" horiz-adv-x="902" 
d="M653 1188q-98 165 -293 495l-198 335q-56 96 -76 137l152 86l561 -961q26 -45 27 -103q1 -54 -27 -97q-8 -12 -162 -261l-267 -430q-161 -259 -246 -389l-147 92z" />
    <glyph glyph-name="asciitilde" unicode="~" horiz-adv-x="1879" 
d="M1771 2938l114 -141l-631 -518l-61 38l-545 367l-528 -432l-115 140l638 519l54 -38l545 -373z" />
    <glyph glyph-name="exclamdown" unicode="&#xa1;" horiz-adv-x="583" 
d="M416 1706v-1701h-173v1701h173zM416 2246v-172h-173v172h173z" />
    <glyph glyph-name="cent" unicode="&#xa2;" horiz-adv-x="1377" 
d="M1242 329q-162 -162 -389 -189v-140h-183v146q-207 32 -357 183q-205 207 -205 465q0 263 195 458q157 157 367 190v146h183v-141q226 -26 384 -183l-125 -130q-112 104 -259 130v-940q148 24 259 135zM443 459q97 -97 227 -130v929q-129 -31 -227 -129
q-141 -140 -141 -335q0 -194 141 -335z" />
    <glyph glyph-name="sterling" unicode="&#xa3;" horiz-adv-x="1793" 
d="M1091 211v0v22q0 168 -114 282q-13 13 -21 20l-292 318h-345l1 178h182l-146 162q-6 9 -15 15q-190 194 -190 466q18 202 167 351q56 56 130 103q215 136 494 138q198 1 375 -71q137 -55 238 -148l-146 -162q-153 147 -406 162l-24 2h-29q-221 0 -388 -105
q-48 -30 -91 -73q-102 -102 -104 -213q-3 -166 115 -284q16 -16 20 -19l297 -324h362v-178h-200l141 -156q4 -4 12 -13l7 -7q186 -184 186 -445q0 -43 -6 -59l17 -10l351 -201l-87 -183l-208 118q-79 45 -132 76l-17 5q-43 26 -113 25q-73 -1 -113 -25l-80 -48l-195 -108
q-88 -49 -206 -49q-117 0 -205 49l-193 108l91 189l194 -114q41 -24 113 -24q71 0 113 24l276 157q63 36 184 49z" />
    <glyph glyph-name="currency" unicode="&#xa4;" horiz-adv-x="1512" 
d="M1426 1188q0 -254 -179 -454l65 -75l-140 -119l-70 86q-161 -97 -335 -97q-172 0 -335 97l-65 -86l-140 118l64 76q-183 193 -184 454q-1 260 185 455l-65 80l140 113l64 -81q153 92 336 92q182 0 335 -92l70 81l140 -113l-65 -81q179 -197 179 -454zM1242 1188
q0 184 -113 313q-21 24 -22 27q-49 43 -118 87q-105 48 -222 48q-126 0 -215 -48q-94 -50 -130 -98q-8 -12 -17 -16q-113 -137 -113 -312q0 -169 113 -309q6 -7 17 -19l6 -4q3 -2 4 -4q9 -11 16 -16q30 -30 103 -70q98 -54 216 -54q119 0 221 54q78 41 132 99q6 7 9 14
q113 131 113 308z" />
    <glyph glyph-name="yen" unicode="&#xa5;" horiz-adv-x="1863" 
d="M1430 1453l-777 -1550l-216 97l378 713l-383 740l-497 -1v173h411l-71 135h-339l-1 173h249l-157 309l205 84l697 -1386l702 1398l194 -97l-156 -308h259v-173h-346l-65 -135h411v-172h-498z" />
    <glyph glyph-name="section" unicode="&#xa7;" horiz-adv-x="1793" 
d="M1075 929q2 0 -100 7q-14 1 -25 1q-219 0 -388 -105q-45 -28 -85 -68q-98 -98 -110 -219q0 -167 112 -281q3 -3 23 -21q84 -75 232 -119q10 0 30 -2t29.5 -2t28 -2t27.5 -2q217 0 388 111q51 33 86 68q96 96 108 218q-1 170 -114 283q-9 9 -21 19q-87 72 -221 114z
M556 1075q-67 20 -116.5 57t-98.5 76q-190 194 -190 466q18 202 167 351q56 56 130 103q215 136 494 138q198 1 375 -71q137 -55 238 -148l-146 -162q-153 147 -406 162l-24 2h-29q-221 0 -388 -105q-48 -30 -91 -73q-102 -102 -104 -213q-3 -166 115 -284q16 -16 20 -19
q111 -101 421 -167q73 -15 233 -59q185 -61 286 -157q43 -41 75 -81q139 -174 130 -400q-8 -187 -166 -346q-59 -60 -129.5 -101.5t-114.5 -59.5q119 -52 205 -124q5 -3 12 -10l13 -13q180 -180 180 -459q-19 -198 -165 -344q-52 -52 -132 -102q-223 -139 -494 -139
q-31 0 -78 4q-330 28 -535 215v0l-113 97l139 162l114 -97v-6q155 -138 411 -161q33 -3 54 -3q220 0 389 110q52 34 86 68q96 96 107 219q0 169 -112 281q-7 7 -23 21q-100 88 -420 162l-98 23q-93 20 -151 42l-43 16q-55 21 -121 58t-106 77l-8 8q-5 5 -14 13
q-90 87 -140 195q-45 97 -46 208l3 57q18 201 167 350q54 54 130 103q62 40 108 60z" />
    <glyph glyph-name="dieresis" unicode="&#xa8;" horiz-adv-x="1053" 
d="M243 2360v173h173v-173h-173zM713 2360v173l173 1v-174h-173z" />
    <glyph glyph-name="copyright" unicode="&#xa9;" horiz-adv-x="2246" 
d="M1130 1820q320 0 579 -131q238 -120 317 -300q38 -86 38 -174q0 -183 -146 -329q-175 -175 -481 -243q-146 -33 -307 -33q-329 0 -584 128q-127 64 -211 148q-144 144 -144 329q0 178 144 323q52 52 140 109q269 173 655 173zM1130 740q192 0 370 55q205 63 324 182
q110 110 110 238q0 125 -108 238q-64 67 -181 125q-229 112 -515 112q-291 0 -520 -111q-113 -56 -182 -127q-108 -112 -108 -236q0 -148 137 -266q108 -94 273 -149q186 -61 400 -61zM1135 994q86 0 147 59l96 -92q-97 -97 -243 -97q-145 0 -242.5 100.5t-97.5 245.5
q0 144 98 242t242 98q139 0 238 -97l-92 -93q-58 60 -146 60q-87 0 -149 -61.5t-62 -148.5q0 -90 60.5 -153t150.5 -63z" />
    <glyph glyph-name="guillemotleft" unicode="&#xab;" horiz-adv-x="1377" 
d="M589 1068l129 -128l-405 -357l405 -356l-129 -130l-508 486l65 65zM1161 1069l130 -129l-405 -357l404 -356l-129 -129l-508 485l65 65z" />
    <glyph glyph-name="logicalnot" unicode="&#xac;" horiz-adv-x="2597" 
d="M2469 340l-185 -1v331h-2176v183h2360v-92z" />
    <glyph glyph-name="registered" unicode="&#xae;" horiz-adv-x="2257" 
d="M1129 1814q322 0 579 -128q238 -120 318 -301q37 -84 37 -175q0 -184 -146 -330q-173 -173 -481 -242q-146 -33 -307 -33q-330 0 -586 128q-124 63 -208 147q-146 146 -146 330q0 181 149 330q59 59 136 107q268 167 655 167zM1129 734q192 0 370 56q204 64 323 184
q111 112 111 236q0 221 -290 363q-228 112 -514 112q-460 0 -702 -238q-108 -106 -108 -237q0 -127 108 -238q67 -68 185 -126q227 -112 517 -112zM1264 1156q-23 -23 -33 -27l232 -233l-91 -91l-287 286h-70v-243h-129v686h221q93 0 157 -64.5t64 -157.5t-64 -156z
M1015 1404v-184h92q37 0 64.5 27.5t27.5 64.5q0 38 -27 65t-65 27h-92z" />
    <glyph glyph-name="degree" unicode="&#xb0;" horiz-adv-x="551" 
d="M49 1442q0 99 66.5 165.5t165.5 66.5q98 0 165 -67t67 -165q0 -92 -70 -162q-64 -64 -162 -65q-101 -1 -166.5 63t-65.5 164zM405 1442q0 52 -36 86.5t-88 34.5q-53 0 -92 -32q-32 -40 -32 -89q0 -44 32 -84q32 -32 92 -32q50 0 87 33t37 83z" />
    <glyph glyph-name="threesuperior" unicode="&#xb3;" horiz-adv-x="333" 
 />
    <glyph glyph-name="acute" unicode="&#xb4;" horiz-adv-x="1220" 
d="M1042 2981l76 -162l-972 -411l-60 103z" />
    <glyph glyph-name="paragraph" unicode="&#xb6;" horiz-adv-x="1928" 
d="M1550 0v1885h146v-1885h-146zM1247 1885h146v-1885h-146v945q-133 -38 -297 -38q-406 0 -625 217q-109 108 -109 237q0 138 124 250q99 90 250 144q166 59 360 59q137 0 297 -37v108z" />
    <glyph glyph-name="periodcentered" unicode="&#xb7;" horiz-adv-x="794" 
d="M162 622q0 102 65 166.5t167 64.5q98 0 165 -67t67 -165q0 -94 -69 -160.5t-163 -66.5q-101 0 -166.5 64t-65.5 164z" />
    <glyph glyph-name="periodcentered" unicode="&#x2219;" horiz-adv-x="794" 
d="M162 622q0 102 65 166.5t167 64.5q98 0 165 -67t67 -165q0 -94 -69 -160.5t-163 -66.5q-101 0 -166.5 64t-65.5 164z" />
    <glyph glyph-name="cedilla" unicode="&#xb8;" horiz-adv-x="945" 
d="M853 -610q0 -244 -308 -353q-130 -47 -280 -47h-119v178h119q237 0 360 121q50 49 50 101q0 48 -49 97q-119 119 -361 119h-92v394h183v-216q122 -12 227 -56q270 -112 270 -338z" />
    <glyph glyph-name="guillemotright" unicode="&#xbb;" horiz-adv-x="1377" 
d="M783 1069l508 -486l-65 -65l-443 -421l-130 130l405 356l-405 357zM211 1069l507 -486l-65 -65l-442 -421l-130 130l405 356l-405 357z" />
    <glyph glyph-name="questiondown" unicode="&#xbf;" horiz-adv-x="1118" 
d="M849 0q-335 0 -519 184q-109 109 -109 237q0 129 109 238q153 153 431 178l1 459h172v-626h-86q-262 0 -398 -136q-56 -56 -56 -113q0 -138 226 -213q105 -35 228 -35h21l-1 -173h-19zM934 1836v-174l-173 1v173h173z" />
    <glyph glyph-name="Agrave" unicode="&#xc0;" horiz-adv-x="1987" 
d="M913 2290l1107 -2295l-195 -98l-502 1043h-772l-459 -1038l-195 87zM637 1156h594l-308 629zM470 2980l956 -469l-60 -103l-972 411z" />
    <glyph glyph-name="Aacute" unicode="&#xc1;" horiz-adv-x="1987" 
d="M913 2290l1107 -2295l-195 -98l-502 1043h-772l-459 -1038l-195 87zM637 1156h594l-308 629zM1297 2981l76 -162l-972 -411l-60 103z" />
    <glyph glyph-name="Acircumflex" unicode="&#xc2;" horiz-adv-x="1987" 
d="M913 2290l1107 -2295l-195 -98l-502 1043h-772l-459 -1038l-195 87zM637 1156h594l-308 629zM1405 2511l-136 -100l-357 397l-356 -400l-130 103l486 513l65 -70z" />
    <glyph glyph-name="Atilde" unicode="&#xc3;" horiz-adv-x="1987" 
d="M913 2290l1107 -2295l-195 -98l-502 1043h-772l-459 -1038l-195 87zM637 1156h594l-308 629zM1093 2387l-323 259l-279 -197l-83 116l351 243l313 -248l262 189l89 -119z" />
    <glyph glyph-name="Adieresis" unicode="&#xc4;" horiz-adv-x="1987" 
d="M913 2290l1107 -2295l-195 -98l-502 1043h-772l-459 -1038l-195 87zM637 1156h594l-308 629zM591 2360v173h173v-173h-173zM1061 2360v173l173 1v-174h-173z" />
    <glyph glyph-name="Aring" unicode="&#xc5;" horiz-adv-x="1987" 
d="M913 2290l1107 -2295l-195 -98l-502 1043h-772l-459 -1038l-195 87zM637 1156h594l-308 629zM1248 2603q0 -142 -185 -213q-79 -30 -166 -30q-180 0 -291 108q-60 58 -60 135q0 83 63 146q102 102 288 102q87 0 165 -29q186 -69 186 -219zM897 2479q123 0 187 64
q29 29 29 60t-21 59q-70 70 -195 70q-122 0 -194 -70q-22 -29 -22 -59q0 -25 22 -54q70 -70 194 -70z" />
    <glyph glyph-name="AE" unicode="&#xc6;" horiz-adv-x="3542" 
d="M1949 216h1313l1 -216h-1531l1 108v880h-745l-972 -1058l-162 140l1879 2063v108l114 1l102 112v-113l864 1v-217h-864v-821l1086 -1v-214l-1086 -1v-772zM1188 1203l545 1v594z" />
    <glyph glyph-name="Ccedilla" unicode="&#xc7;" horiz-adv-x="2279" 
d="M1328 124q378 0 670 292l157 -151q-355 -351 -827 -351q-475 0 -815 340q-351 351 -351 848q0 318 156 592t428 437q267 159 582 159q475 0 816 -341l-151 -151q-281 281 -665 281q-372 0 -658 -286q-278 -278 -278 -691q0 -416 278 -692q288 -286 658 -286zM1866 -610
q0 -244 -308 -353q-130 -47 -280 -47h-119v178h119q237 0 360 121q50 49 50 101q0 48 -49 97q-119 119 -361 119h-92v394h183v-216q122 -12 227 -56q270 -112 270 -338z" />
    <glyph glyph-name="Egrave" unicode="&#xc8;" horiz-adv-x="1836" 
d="M383 1058v-842h1307v-216h-1533v2242l108 -1h972v-211h-854v-756l1080 -1v-214zM284 2980l956 -469l-60 -103l-972 411z" />
    <glyph glyph-name="Eacute" unicode="&#xc9;" horiz-adv-x="1836" 
d="M383 1058v-842h1307v-216h-1533v2242l108 -1h972v-211h-854v-756l1080 -1v-214zM1107 2981l76 -162l-972 -411l-60 103z" />
    <glyph glyph-name="Ecircumflex" unicode="&#xca;" horiz-adv-x="1836" 
d="M383 1058v-842h1307v-216h-1533v2242l108 -1h972v-211h-854v-756l1080 -1v-214zM1224 2511l-136 -100l-357 397l-356 -400l-130 103l486 513l65 -70z" />
    <glyph glyph-name="Edieresis" unicode="&#xcb;" horiz-adv-x="1836" 
d="M383 1058v-842h1307v-216h-1533v2242l108 -1h972v-211h-854v-756l1080 -1v-214zM365 2360v173h173v-173h-173zM835 2360v173l173 1v-174h-173z" />
    <glyph glyph-name="Igrave" unicode="&#xcc;" horiz-adv-x="1501" 
d="M1457 -524l19 -19q181 -181 243 -437q31 -125 31 -257q0 -415 -276 -691q-114 -114 -228 -180q-231 -134 -495 -134q-423 0 -719 298q-291 293 -291 707q0 277 138 513q67 114 157 204q258 258 623 288v183q-230 36 -378 184q-190 190 -189 465t193 467t466 192
q216 0 394 -130l70 70l124 -135l-70 -65q135 -175 135 -400q0 -277 -188 -464q-151 -150 -379 -184v-183q167 -10 326 -83q143 -66 280 -195q3 -2 9 -8zM410 264q104 -105 249 -130v82h178v-81q169 32 278 163t110 301q1 153 -86 270l-54 -59l-135 124l65 65
q-128 76 -264 76q-202 0 -356 -154q-126 -126 -126 -322q0 -193 141 -335zM752 -2057q249 0 454 137.5t302 366.5q63 151 63 316q0 347 -237 584q-212 212 -497 237v-81l-178 1v80q-284 -24 -497 -237q-243 -243 -243 -584q0 -343 242.5 -581.5t590.5 -238.5z" />
    <glyph glyph-name="Iacute" unicode="&#xcd;" horiz-adv-x="783" 
d="M529 2242v-2242h-259v2242h259zM802 2981l76 -162l-972 -411l-60 103z" />
    <glyph glyph-name="Icircumflex" unicode="&#xce;" horiz-adv-x="783" 
d="M529 2242v-2242h-259v2242h259zM892 2511l-136 -100l-357 397l-356 -400l-130 103l486 513l65 -70z" />
    <glyph glyph-name="Idieresis" unicode="&#xcf;" horiz-adv-x="783" 
d="M529 2242v-2242h-259v2242h259zM62 2360v173h173v-173h-173zM532 2360v173l173 1v-174h-173z" />
    <glyph glyph-name="Ntilde" unicode="&#xd1;" horiz-adv-x="2608" 
d="M373 2203l1836 -1852v1891l226 -1v-2419l-194 189l-1836 1852l-1 -1863h-226l-1 2392zM1467 2387l-323 259l-279 -197l-83 116l351 243l313 -248l262 189l89 -119z" />
    <glyph glyph-name="Ograve" unicode="&#xd2;" horiz-adv-x="2376" 
d="M1172 2284q411 0 712 -302q231 -232 316 -561q42 -162 42 -325q0 -528 -357 -885q-303 -303 -713 -303q-409 0 -713 303q-229 228 -314 558q-42 160 -42 327q0 346 166 635q228 399 640 516q130 37 263 37zM1172 113q314 0 549 235q293 293 293 748q0 449 -281 729
q-255 254 -561 254q-308 0 -562 -254q-280 -280 -280 -729q0 -448 280 -729q253 -254 562 -254zM718 2980l956 -469l-60 -103l-972 411z" />
    <glyph glyph-name="Oacute" unicode="&#xd3;" horiz-adv-x="2376" 
d="M1172 2284q411 0 712 -302q231 -232 316 -561q42 -162 42 -325q0 -528 -357 -885q-303 -303 -713 -303q-409 0 -713 303q-229 228 -314 558q-42 160 -42 327q0 346 166 635q228 399 640 516q130 37 263 37zM1172 113q314 0 549 235q293 293 293 748q0 449 -281 729
q-255 254 -561 254q-308 0 -562 -254q-280 -280 -280 -729q0 -448 280 -729q253 -254 562 -254zM1506 2981l76 -162l-972 -411l-60 103z" />
    <glyph glyph-name="Ocircumflex" unicode="&#xd4;" horiz-adv-x="2376" 
d="M1637 2511l-136 -100l-357 397l-356 -400l-130 103l486 513l65 -70zM1172 2284q411 0 712 -302q231 -232 316 -561q42 -162 42 -325q0 -528 -357 -885q-303 -303 -713 -303q-409 0 -713 303q-229 228 -314 558q-42 160 -42 327q0 346 166 635q228 399 640 516
q130 37 263 37zM1172 113q314 0 549 235q293 293 293 748q0 449 -281 729q-255 254 -561 254q-308 0 -562 -254q-280 -280 -280 -729q0 -448 280 -729q253 -254 562 -254z" />
    <glyph glyph-name="Otilde" unicode="&#xd5;" horiz-adv-x="2376" 
d="M1172 2284q411 0 712 -302q231 -232 316 -561q42 -162 42 -325q0 -528 -357 -885q-303 -303 -713 -303q-409 0 -713 303q-229 228 -314 558q-42 160 -42 327q0 346 166 635q228 399 640 516q130 37 263 37zM1172 113q314 0 549 235q293 293 293 748q0 449 -281 729
q-255 254 -561 254q-308 0 -562 -254q-280 -280 -280 -729q0 -448 280 -729q253 -254 562 -254zM1298 2387l-323 259l-279 -197l-83 116l351 243l313 -248l262 189l89 -119z" />
    <glyph glyph-name="Odieresis" unicode="&#xd6;" horiz-adv-x="2376" 
d="M1172 2284q411 0 712 -302q231 -232 316 -561q42 -162 42 -325q0 -528 -357 -885q-303 -303 -713 -303q-409 0 -713 303q-229 228 -314 558q-42 160 -42 327q0 346 166 635q228 399 640 516q130 37 263 37zM1172 113q314 0 549 235q293 293 293 748q0 449 -281 729
q-255 254 -561 254q-308 0 -562 -254q-280 -280 -280 -729q0 -448 280 -729q253 -254 562 -254zM831 2360v173h173v-173h-173zM1301 2360v173l173 1v-174h-173z" />
    <glyph glyph-name="Oslash" unicode="&#xd8;" horiz-adv-x="2376" 
d="M1890 1976q231 -231 315 -558q41 -159 41 -327q0 -526 -356 -880q-305 -303 -713 -303q-269 0 -476 119l-85 -147l-195 104l97 173l-54 54q-356 356 -356 880q0 345 166 635q190 330 518 473q183 80 385 80q242 0 476 -130l91 168l195 -108l-108 -184q38 -38 59 -49z
M617 362q2 -3 9 -16l918 1620q-181 97 -367 97q-318 0 -560 -243q-292 -294 -292 -729q0 -437 292 -729zM1177 124q320 0 563 243q290 290 290 724q0 438 -291 729q-8 9 -16 16l-918 -1615q157 -97 372 -97z" />
    <glyph glyph-name="Ugrave" unicode="&#xd9;" horiz-adv-x="2360" 
d="M200 2241l227 1v-1211q0 -421 232 -653q211 -211 518 -211q312 0 516 204q240 240 240 660v1210h227v-1210q0 -496 -308 -804q-181 -181 -427 -245q-119 -31 -248 -31q-399 0 -676 276q-302 302 -302 804zM745 2980l956 -469l-60 -103l-972 411z" />
    <glyph glyph-name="Uacute" unicode="&#xda;" horiz-adv-x="2360" 
d="M200 2241l227 1v-1211q0 -421 232 -653q211 -211 518 -211q312 0 516 204q240 240 240 660v1210h227v-1210q0 -496 -308 -804q-181 -181 -427 -245q-119 -31 -248 -31q-399 0 -676 276q-302 302 -302 804zM1582 2981l76 -162l-972 -411l-60 103z" />
    <glyph glyph-name="Ucircumflex" unicode="&#xdb;" horiz-adv-x="2360" 
d="M200 2241l227 1v-1211q0 -421 232 -653q211 -211 518 -211q312 0 516 204q240 240 240 660v1210h227v-1210q0 -496 -308 -804q-181 -181 -427 -245q-119 -31 -248 -31q-399 0 -676 276q-302 302 -302 804zM1678 2511l-136 -100l-357 397l-356 -400l-130 103l486 513
l65 -70z" />
    <glyph glyph-name="Udieresis" unicode="&#xdc;" horiz-adv-x="2360" 
d="M200 2241l227 1v-1211q0 -421 232 -653q211 -211 518 -211q312 0 516 204q240 240 240 660v1210h227v-1210q0 -496 -308 -804q-181 -181 -427 -245q-119 -31 -248 -31q-399 0 -676 276q-302 302 -302 804zM855 2360v173h173v-173h-173zM1325 2360v173l173 1v-174h-173z
" />
    <glyph glyph-name="germandbls" unicode="&#xdf;" horiz-adv-x="1793" 
d="M243 248l43 -48q12 -14 18 -20q44 -44 106 -50q11 0 22 -1q62 1 119 48q12 10 19 17q51 51 51 114v22q0 66 -38 113q-43 42 -129 65q-158 42 -230 114q-5 5 -24 26q-79 88 -81 232q0 7 1 33q6 135 103 231q15 15 31 28q104 86 232 86q22 0 39 -5q125 -7 224 -105
q8 -8 23 -25l-140 -113q-61 59 -130 59q-5 6 -16 6q-64 0 -119 -43q-64 -64 -70 -130v-22q0 -75 43 -118q5 -7 16 -19q34 -34 114 -52q153 -33 231 -111q8 -8 17 -18q87 -114 87 -233v-37q-17 -157 -141 -260q-97 -81 -237 -81h-33q-135 15 -221 100q-14 14 -27 30v0l-39 49
zM1080 248l44 -48l18 -21q42 -43 105 -49h22q62 0 119 47q11 9 19 17q51 51 51 114v22q0 67 -38 113q-43 43 -129 65q-160 41 -232 115q-103 106 -103 257v34q0 127 103 229q8 8 32 29q105 86 232 86q23 0 37 -5q128 -7 226 -105q9 -9 23 -25l-140 -113q-59 58 -130 59
q-4 5 -16 7q-63 0 -120 -45q-63 -63 -69 -129v-22q0 -75 43 -119q5 -5 14 -16q38 -38 116 -54q138 -28 240 -119q5 -4 8 -10q87 -114 87 -232q1 -5 1 -16v-22q-18 -157 -142 -260q-97 -81 -237 -81h-33q-137 15 -223 102q-18 19 -25 28v0l-38 49z" />
    <glyph glyph-name="agrave" unicode="&#xe0;" 
d="M724 -49q-356 0 -546 189q-113 112 -113 249q0 138 112 250q193 193 547 193q288 0 475 -135v340h-610v183h788v-1317h-178v183q-187 -135 -475 -135zM313 518q-58 -67 -58 -129q0 -65 58 -132q145 -137 421 -138q285 -1 424 136q62 61 62 134q0 71 -53 124
q-11 11 -17 16q-135 135 -416 136q-266 1 -421 -147zM416 2054l956 -469l-60 -103l-972 411z" />
    <glyph glyph-name="aacute" unicode="&#xe1;" 
d="M724 -49q-356 0 -546 189q-113 112 -113 249q0 138 112 250q193 193 547 193q288 0 475 -135v340h-610v183h788v-1317h-178v183q-187 -135 -475 -135zM313 518q-58 -67 -58 -129q0 -65 58 -132q145 -137 421 -138q285 -1 424 136q62 61 62 134q0 71 -53 124
q-11 11 -17 16q-135 135 -416 136q-266 1 -421 -147zM1297 2049l76 -162l-972 -411l-60 103z" />
    <glyph glyph-name="acircumflex" unicode="&#xe2;" 
d="M724 -49q-356 0 -546 189q-113 112 -113 249q0 138 112 250q193 193 547 193q288 0 475 -135v340h-610v183h788v-1317h-178v183q-187 -135 -475 -135zM313 518q-58 -67 -58 -129q0 -65 58 -132q145 -137 421 -138q285 -1 424 136q62 61 62 134q0 71 -53 124
q-11 11 -17 16q-135 135 -416 136q-266 1 -421 -147zM1360 1582l-136 -100l-357 397l-356 -400l-130 103l486 513l65 -70z" />
    <glyph glyph-name="atilde" unicode="&#xe3;" 
d="M724 -49q-356 0 -546 189q-113 112 -113 249q0 138 112 250q193 193 547 193q288 0 475 -135v340h-610v183h788v-1317h-178v183q-187 -135 -475 -135zM313 518q-58 -67 -58 -129q0 -65 58 -132q145 -137 421 -138q285 -1 424 136q62 61 62 134q0 71 -53 124
q-11 11 -17 16q-135 135 -416 136q-266 1 -421 -147zM1047 1383l-323 259l-279 -197l-83 116l351 243l313 -248l262 189l89 -119z" />
    <glyph glyph-name="adieresis" unicode="&#xe4;" 
d="M724 -49q-356 0 -546 189q-113 112 -113 249q0 138 112 250q193 193 547 193q288 0 475 -135v340h-610v183h788v-1317h-178v183q-187 -135 -475 -135zM313 518q-58 -67 -58 -129q0 -65 58 -132q145 -137 421 -138q285 -1 424 136q62 61 62 134q0 71 -53 124
q-11 11 -17 16q-135 135 -416 136q-266 1 -421 -147zM656 1545v173h173v-173h-173zM1126 1545v173l173 1v-174h-173z" />
    <glyph glyph-name="aring" unicode="&#xe5;" 
d="M724 -49q-356 0 -546 189q-113 112 -113 249q0 138 112 250q193 193 547 193q288 0 475 -135v340h-610v183h788v-1317h-178v183q-187 -135 -475 -135zM313 518q-58 -67 -58 -129q0 -65 58 -132q145 -137 421 -138q285 -1 424 136q62 61 62 134q0 71 -53 124
q-11 11 -17 16q-135 135 -416 136q-266 1 -421 -147zM1347 1728q0 -142 -185 -213q-79 -30 -166 -30q-180 0 -291 108q-60 58 -60 135q0 83 63 146q102 102 288 102q87 0 165 -29q186 -69 186 -219zM996 1604q123 0 187 64q29 29 29 60t-21 59q-70 70 -195 70
q-122 0 -194 -70q-22 -29 -22 -59q0 -25 22 -54q70 -70 194 -70z" />
    <glyph glyph-name="ae" unicode="&#xe6;" horiz-adv-x="2403" 
d="M2322 173v-173h-994v-86h-172l-1 86l1 86q-189 -129 -454 -129q-333 0 -518 183q-108 107 -108 238q0 251 327 371q136 50 298 50q269 0 455 -129v323h-584v173l1340 -1v-171h-584v-324h789v-174h-789v-323h994zM701 130q269 0 399 132q56 57 56 116q0 133 -222 211
q-108 37 -232 37q-264 0 -400 -135q-54 -54 -54 -113q0 -138 228 -213q107 -35 225 -35z" />
    <glyph glyph-name="ccedilla" unicode="&#xe7;" horiz-adv-x="1312" 
d="M1096 264l129 -129q-197 -189 -469 -189q-275 0 -464 189t-189 464q0 272 191 463t463 191q265 0 458 -184l-124 -129q-136 136 -335 136q-197 0 -329 -131q-4 -5 -14 -13q-121 -121 -121 -333q0 -205 130 -340t334 -135q200 0 340 140zM1349 -610q0 -244 -308 -353
q-130 -47 -280 -47h-119v178h119q237 0 360 121q50 49 50 101q0 48 -49 97q-119 119 -361 119h-92v394h183v-216q122 -12 227 -56q270 -112 270 -338z" />
    <glyph glyph-name="egrave" unicode="&#xe8;" horiz-adv-x="1388" 
d="M1351 0h-1227v1220h794v-178h-599v-340h814v-178h-814v-339h1031zM165 2054l956 -469l-60 -103l-972 411z" />
    <glyph glyph-name="eacute" unicode="&#xe9;" horiz-adv-x="1388" 
d="M1351 0h-1227v1220h794v-178h-599v-340h814v-178h-814v-339h1031zM1048 2049l76 -162l-972 -411l-60 103z" />
    <glyph glyph-name="ecircumflex" unicode="&#xea;" horiz-adv-x="1388" 
d="M1351 0h-1227v1220h794v-178h-599v-340h814v-178h-814v-339h1031zM1122 1598l-136 -100l-357 397l-356 -400l-130 103l486 513l65 -70z" />
    <glyph glyph-name="edieresis" unicode="&#xeb;" horiz-adv-x="1388" 
d="M1351 0h-1227v1220h794v-178h-599v-340h814v-178h-814v-339h1031zM159 1545v173h173v-173h-173zM629 1545v173l173 1v-174h-173z" />
    <glyph glyph-name="igrave" unicode="&#xec;" horiz-adv-x="610" 
d="M408 1220l-1 -1220h-203l-1 1220h205zM-122 2054l956 -469l-60 -103l-972 411z" />
    <glyph glyph-name="iacute" unicode="&#xed;" horiz-adv-x="610" 
d="M408 1220l-1 -1220h-203l-1 1220h205zM731 2049l76 -162l-972 -411l-60 103z" />
    <glyph glyph-name="icircumflex" unicode="&#xee;" horiz-adv-x="610" 
d="M408 1220l-1 -1220h-203l-1 1220h205zM787 1582l-136 -100l-357 397l-356 -400l-130 103l486 513l65 -70z" />
    <glyph glyph-name="idieresis" unicode="&#xef;" horiz-adv-x="610" 
d="M408 1220l-1 -1220h-203l-1 1220h205zM-16 1545v173h173v-173h-173zM454 1545v173l173 1v-174h-173z" />
    <glyph glyph-name="ntilde" unicode="&#xf1;" horiz-adv-x="1782" 
d="M1598 1226v-1318l-156 114l-1156 885v-907h-194v1269l1317 -999v956h189zM985 1491l-323 259l-279 -197l-83 116l351 243l313 -248l262 189l89 -119z" />
    <glyph glyph-name="ograve" unicode="&#xf2;" horiz-adv-x="1496" 
d="M778 -54q-270 0 -470 189q-89 84 -140 214q-48 122 -48 250q0 274 192.5 466.5t466.5 192.5q273 0 462.5 -188.5t188.5 -470.5q0 -281 -188 -464q-194 -189 -464 -189zM443 940q-135 -136 -135 -341q0 -199 135 -334q151 -152 335 -152t319 135q145 145 145 351
q0 211 -130 341q-145 145 -334 145q-190 0 -326 -136zM302 2054l956 -469l-60 -103l-972 411z" />
    <glyph glyph-name="oacute" unicode="&#xf3;" horiz-adv-x="1496" 
d="M778 -54q-270 0 -470 189q-89 84 -140 214q-48 122 -48 250q0 274 192.5 466.5t466.5 192.5q273 0 462.5 -188.5t188.5 -470.5q0 -281 -188 -464q-194 -189 -464 -189zM443 940q-135 -136 -135 -341q0 -199 135 -334q151 -152 335 -152t319 135q145 145 145 351
q0 211 -130 341q-145 145 -334 145q-190 0 -326 -136zM1155 2049l76 -162l-972 -411l-60 103z" />
    <glyph glyph-name="ocircumflex" unicode="&#xf4;" horiz-adv-x="1496" 
d="M778 -54q-270 0 -470 189q-89 84 -140 214q-48 122 -48 250q0 274 192.5 466.5t466.5 192.5q273 0 462.5 -188.5t188.5 -470.5q0 -281 -188 -464q-194 -189 -464 -189zM443 940q-135 -136 -135 -341q0 -199 135 -334q151 -152 335 -152t319 135q145 145 145 351
q0 211 -130 341q-145 145 -334 145q-190 0 -326 -136zM1243 1582l-136 -100l-357 397l-356 -400l-130 103l486 513l65 -70z" />
    <glyph glyph-name="otilde" unicode="&#xf5;" horiz-adv-x="1496" 
d="M778 -54q-270 0 -470 189q-89 84 -140 214q-48 122 -48 250q0 274 192.5 466.5t466.5 192.5q273 0 462.5 -188.5t188.5 -470.5q0 -281 -188 -464q-194 -189 -464 -189zM443 940q-135 -136 -135 -341q0 -199 135 -334q151 -152 335 -152t319 135q145 145 145 351
q0 211 -130 341q-145 145 -334 145q-190 0 -326 -136zM918 1491l-323 259l-279 -197l-83 116l351 243l313 -248l262 189l89 -119z" />
    <glyph glyph-name="odieresis" unicode="&#xf6;" horiz-adv-x="1496" 
d="M778 -54q-270 0 -470 189q-89 84 -140 214q-48 122 -48 250q0 274 192.5 466.5t466.5 192.5q273 0 462.5 -188.5t188.5 -470.5q0 -281 -188 -464q-194 -189 -464 -189zM443 940q-135 -136 -135 -341q0 -199 135 -334q151 -152 335 -152t319 135q145 145 145 351
q0 211 -130 341q-145 145 -334 145q-190 0 -326 -136zM427 1545v173h173v-173h-173zM897 1545v173l173 1v-174h-173z" />
    <glyph glyph-name="divide" unicode="&#xf7;" horiz-adv-x="1064" 
d="M610 443v-162h-173v162h173zM610 1210v-162h-173v163zM961 853v-173h-875v173h875z" />
    <glyph glyph-name="oslash" unicode="&#xf8;" horiz-adv-x="1496" 
d="M1156 1118q42 -32 59 -49q189 -189 189 -470t-188 -464q-194 -189 -465 -189q-135 0 -249 48l-124 -210l-157 86l125 211q-21 20 -65 54q-91 91 -139 214q-50 127 -50 251q0 273 194 466t465 193q130 0 248 -49l108 189l157 -92zM1064 961l-470 -810q83 -27 157 -27
q192 0 333.5 140.5t140.5 334.5q-1 100 -37 187q-30 74 -103 154q-8 13 -21 21zM907 1053q-74 22 -156 22q-88 0 -178 -30q-107 -36 -150 -97q-2 -3 -7 -8q-148 -146 -147 -341q1 -188 147 -334q5 -6 21 -22z" />
    <glyph glyph-name="ugrave" unicode="&#xf9;" 
d="M775 -49q-276 0 -465 184q-89 87 -143 217q-51 124 -51 253v615h195v-615q0 -213 130 -340q138 -135 334 -135q197 0 330.5 138.5t133.5 336.5v615h195v-615q0 -281 -194 -470q-189 -184 -465 -184zM302 2054l956 -469l-60 -103l-972 411z" />
    <glyph glyph-name="uacute" unicode="&#xfa;" 
d="M775 -49q-276 0 -465 184q-89 87 -143 217q-51 124 -51 253v615h195v-615q0 -213 130 -340q138 -135 334 -135q197 0 330.5 138.5t133.5 336.5v615h195v-615q0 -281 -194 -470q-189 -184 -465 -184zM1190 2049l76 -162l-972 -411l-60 103z" />
    <glyph glyph-name="ucircumflex" unicode="&#xfb;" 
d="M775 -49q-276 0 -465 184q-89 87 -143 217q-51 124 -51 253v615h195v-615q0 -213 130 -340q138 -135 334 -135q197 0 330.5 138.5t133.5 336.5v615h195v-615q0 -281 -194 -470q-189 -184 -465 -184zM1265 1582l-136 -100l-357 397l-356 -400l-130 103l486 513l65 -70z
" />
    <glyph glyph-name="udieresis" unicode="&#xfc;" 
d="M775 -49q-276 0 -465 184q-89 87 -143 217q-51 124 -51 253v615h195v-615q0 -213 130 -340q138 -135 334 -135q197 0 330.5 138.5t133.5 336.5v615h195v-615q0 -281 -194 -470q-189 -184 -465 -184zM440 1545v173h173v-173h-173zM910 1545v173l173 1v-174h-173z" />
    <glyph glyph-name="ydieresis" unicode="&#xff;" horiz-adv-x="1269" 
d="M945 -1042v972l-983 1216l141 112l842 -1037v1037h194v-2300h-194zM227 1545v173h173v-173h-173zM697 1545v173l173 1v-174h-173z" />
    <glyph glyph-name="dotlessi" unicode="&#x131;" horiz-adv-x="610" 
d="M408 1220l-1 -1220h-203l-1 1220h205z" />
    <glyph glyph-name="OE" unicode="&#x152;" horiz-adv-x="3683" 
d="M2241 216h1318l1 -216h-1535v421q-53 -92 -135 -173q-304 -302 -718 -302q-267 0 -501 138q-253 149 -405 419q-163 291 -163 631q0 258 97 492q92 225 258 391q305 305 714 305q264 0 503 -138q130 -75 216 -165t134 -172v399h1080v-216h-864v-757l1091 1v-216h-1090z
M1172 162q321 0 562 241q185 185 255 456q36 135 36 275q0 437 -292 729q-243 243 -561 243q-321 0 -562 -243q-291 -294 -291 -730q0 -439 291 -728q245 -243 562 -243z" />
    <glyph glyph-name="oe" unicode="&#x153;" horiz-adv-x="2430" 
d="M1345 173h993v-173h-1166v151l-11 -11q-185 -183 -443 -183q-261 0 -443.5 182.5t-182.5 443.5t182.5 444t443.5 183q260 0 442 -184q12 -12 12 -11v151h756v-172h-583v-324h788v-173l-788 -1v-323zM718 130q189 1 321.5 132.5t132.5 320.5q0 190 -132 322t-322 132
q-185 0 -318.5 -134.5t-134.5 -319.5q-1 -184 134 -319t319 -134z" />
    <glyph glyph-name="Ydieresis" unicode="&#x178;" horiz-adv-x="1841" 
d="M1620 2338l205 -97l-1172 -2338l-216 97l373 713l-783 1529l216 85l686 -1387zM578 2360v173h173v-173h-173zM1048 2360v173l173 1v-174h-173z" />
    <glyph glyph-name="florin" unicode="&#x192;" horiz-adv-x="956" 
d="M594 1042v-1134h-508v178h330v956h-259v178h259v1134h507v-178h-329v-956h265v-178h-265z" />
    <glyph glyph-name="circumflex" unicode="&#x2c6;" horiz-adv-x="1134" 
d="M1049 2511l-136 -100l-357 397l-356 -400l-130 103l486 513l65 -70z" />
    <glyph glyph-name="caron" unicode="&#x2c7;" horiz-adv-x="1134" 
d="M491 2414l-426 443l135 123l356 -399l357 399l129 -123l-421 -443h-130z" />
    <glyph glyph-name="ring" unicode="&#x2da;" horiz-adv-x="886" 
d="M788 2603q0 -142 -185 -213q-79 -30 -166 -30q-180 0 -291 108q-60 58 -60 135q0 83 63 146q102 102 288 102q87 0 165 -29q186 -69 186 -219zM437 2479q123 0 187 64q29 29 29 60t-21 59q-70 70 -195 70q-122 0 -194 -70q-22 -29 -22 -59q0 -25 22 -54q70 -70 194 -70z
" />
    <glyph glyph-name="tilde" unicode="&#x2dc;" horiz-adv-x="1496" 
d="M923 2387l-323 259l-279 -197l-83 116l351 243l313 -248l262 189l89 -119z" />
    <glyph glyph-name="hungarumlaut" unicode="&#x2dd;" horiz-adv-x="1501" 
d="M1515 -544q278 -278 278 -693q0 -394 -297 -707q-7 -8 -20 -19q-178 -152 -313 -206q-180 -72 -375 -72q-415 0 -693 278l-19 19l-7 8q-7 7 -12 11q-278 280 -278 688q0 419 296 715q260 260 622 290v183q-224 35 -372 184q-195 195 -196 464q-1 272 193 465.5t466 193.5
q215 0 395 -129l70 70l124 -135l-65 -65q135 -190 135 -400q0 -271 -194 -465q-148 -148 -373 -183v-183q350 -21 594 -269l11 -11q10 -12 30 -32zM448 265q111 -107 249 -130v81h183v-81q141 29 245 132q139 138 139 332q0 153 -87 270l-54 -59l-130 124l60 65
q-119 76 -265 76q-199 0 -340 -141q-10 -8 -15 -13q-120 -120 -120 -322q0 -204 135 -334zM788 -2057q341 0 581 240t240 580q0 347 -237 584q-212 212 -492 237v-81h-183v81q-278 -24 -492 -237l-17 -17q-226 -226 -226 -567t243 -583q238 -237 583 -237z" />
    <glyph glyph-name="endash" unicode="&#x2013;" horiz-adv-x="1048" 
d="M86 680v173h875v-173h-875z" />
    <glyph glyph-name="emdash" unicode="&#x2014;" horiz-adv-x="1685" 
d="M135 680v173h1415v-173h-1415z" />
    <glyph glyph-name="quoteleft" unicode="&#x2018;" horiz-adv-x="367" 
d="M362 1998l-97 -97l-298 216l153 124z" />
    <glyph glyph-name="quoteright" unicode="&#x2019;" horiz-adv-x="367" 
d="M0 1998l243 243l152 -124l-298 -216z" />
    <glyph glyph-name="quotesinglbase" unicode="&#x201a;" horiz-adv-x="481" 
d="M0 6l243 242l151 -124l-296 -216z" />
    <glyph glyph-name="quotedblleft" unicode="&#x201c;" horiz-adv-x="751" 
d="M362 1998l-97 -97l-298 216l153 124zM751 1998l-98 -97l-297 216l152 124z" />
    <glyph glyph-name="quotedblright" unicode="&#x201d;" horiz-adv-x="751" 
d="M383 1998l243 243l152 -124l-297 -216zM-5 1998l243 243l151 -124l-297 -216z" />
    <glyph glyph-name="quotedblbase" unicode="&#x201e;" horiz-adv-x="751" 
d="M383 0l243 243l152 -124l-296 -216zM-6 0l244 243l151 -124l-297 -217z" />
    <glyph glyph-name="dagger" unicode="&#x2020;" horiz-adv-x="1193" 
d="M1037 1944v-184h-350l-1 -880h-184l-1 880h-343l-1 185h345v415h184v-415z" />
    <glyph glyph-name="daggerdbl" unicode="&#x2021;" horiz-adv-x="1193" 
d="M502 1220h-345v184h345l-1 356h-343l-1 185h345v415h184v-415l351 -1v-184h-350l-1 -356h351v-184h-351v-340h-184v340z" />
    <glyph glyph-name="bullet" unicode="&#x2022;" horiz-adv-x="1345" 
d="M648 853q174 0 271 -97q53 -53 53 -124q0 -66 -54 -121q-94 -95 -270 -95q-166 0 -258 93q-55 56 -55 123q0 132 169 195q70 26 144 26z" />
    <glyph glyph-name="ellipsis" unicode="&#x2026;" horiz-adv-x="1620" 
d="M103 0v173h172l-1 -173h-171zM734 0v173h173v-173h-173zM1372 0v173h172v-173h-172z" />
    <glyph glyph-name="perthousand" unicode="&#x2030;" horiz-adv-x="2803" 
d="M1420 724q152 0 260 -108t107 -260q-1 -155 -106.5 -263.5t-260.5 -108.5q-158 0 -265 107t-107 265q0 156 108 262t264 106zM1421 162q79 0 133.5 57t54.5 137q0 73 -45 118q-9 9 -14 12q-4 7 -13 15q-45 44 -117 43q-79 -1 -122 -44q-9 -7 -13 -14q-59 -60 -59 -130
q-1 -77 58.5 -135.5t136.5 -58.5zM1463 1988l157 -94l-1112 -1964l-157 92zM508 1199q-153 0 -265 108q-108 104 -108 259q0 158 107.5 265.5t265.5 107.5q157 0 264.5 -107.5t107.5 -265.5q0 -154 -108.5 -260.5t-263.5 -106.5zM319 1566q0 -77 56 -133t133 -56
q79 0 136.5 55t57.5 134q0 77 -58.5 135.5t-135.5 58.5q-79 0 -134 -57.5t-55 -136.5zM2300 724q153 0 261 -107.5t107 -260.5q-1 -156 -107 -264t-261 -108q-157 0 -264.5 107.5t-107.5 264.5q0 154 107 261t265 107zM2300 162q80 0 134.5 57t54.5 137q0 91 -59 130l-12 15
q-44 44 -118 44q-77 0 -122 -44l-9 -9l-4 -6q-59 -59 -59 -130q0 -77 58.5 -135.5t135.5 -58.5z" />
    <glyph glyph-name="guilsinglleft" unicode="&#x2039;" horiz-adv-x="826" 
d="M589 1068l129 -128l-405 -357l405 -356l-129 -130l-508 486l65 65z" />
    <glyph glyph-name="guilsinglright" unicode="&#x203a;" horiz-adv-x="826" 
d="M211 1069l507 -486l-65 -65l-442 -421l-130 130l405 356l-405 357z" />
    <glyph glyph-name="fraction" unicode="&#x2044;" horiz-adv-x="1210" 
d="M-151 -913l1362 2333l155 -92l-1361 -2327z" />
    <glyph glyph-name="trademark" unicode="&#x2122;" horiz-adv-x="2257" 
d="M1129 1814q514 0 788 -275q151 -152 151 -329q0 -179 -151 -330q-174 -174 -478 -242q-146 -33 -310 -33q-512 0 -789 275q-151 150 -151 330q0 179 150 329q163 163 440 232q169 43 350 43zM1129 734q193 0 373 56q206 64 326 184q111 111 111 237q0 141 -141 261
q-111 95 -270 149q-185 64 -399 64q-458 0 -697 -238q-113 -112 -113 -237t113 -238q154 -154 424 -211q131 -27 273 -27zM1307 1064l178 270l119 173v-594h-130v172l-167 -248l-173 248l-1 -172l-129 1v582l119 -168zM567 1301v130h362v-130h-114v-388l-129 1v387h-119z
" />
    <glyph glyph-name="notequal" unicode="&#x2260;" horiz-adv-x="1091" 
d="M567 1004l173 260l156 -92l-113 -168l178 -1v-171h-286l-86 -135h372v-173h-479l-185 -296l-157 85l129 211h-183v173h292l86 135h-378v172h481z" />
    <glyph glyph-name="fi" unicode="&#xf001;" horiz-adv-x="886" 
d="M1015 1771v-183h-183v183h183zM1015 0h-183v1042h-260l-1 -1042h-182v1042h-259v184h259v1134h507v-184h-324v-951l443 1v-1226z" />
    <glyph glyph-name="fl" unicode="&#xf002;" horiz-adv-x="1274" 
d="M772 2176h-329v-950h258l1 -184h-259v-1042h-184v1042h-259v184h259v1134h691v-2176h324v-184h-502v2176z" />
    <glyph glyph-name="HT" horiz-adv-x="222" 
 />
    <glyph glyph-name="nonmarkingreturn" horiz-adv-x="222" 
 />
    </font>
</defs>
</svg>
