<?xml version="1.0" encoding="UTF-8" standalone="no"?>
<!DOCTYPE svg  PUBLIC '-//W3C//DTD SVG 1.1//EN'  'http://www.w3.org/Graphics/SVG/1.1/DTD/svg11.dtd'>
<svg version="1.1" xmlns="http://www.w3.org/2000/svg">
<defs>
<font id="AvantGardeGothicItcT-Book" horiz-adv-x="1024">
<font-face underline-position="-380" bbox="-82 -449 2062 1857" underline-thickness="120" font-weight="300" x-height="1010" units-per-em="2048" unicode-range="U+0020-02DC" descent="-410" font-family="AvantGarGotItcT" cap-height="1365" ascent="1638" panose-1="0 0 0 0 0 0 0 0 0 0"/>
<missing-glyph/>
<glyph unicode=" " horiz-adv-x="512" glyph-name="space"/>
<glyph unicode=" " horiz-adv-x="512" glyph-name="space"/>
<glyph d="M161 0v232h137v-232h-137zM161 356v1009h137v-1009h-137z" unicode="!" horiz-adv-x="459" glyph-name="exclam"/>
<glyph d="M86 967l-14 398h126l-14 -398h-98zM304 967l-14 398h126l-14 -398h-98z" unicode='&quot;' horiz-adv-x="487" glyph-name="quotedbl"/>
<glyph d="M687 475l-49 -348h-95l49 348h-226l-49 -348h-95l49 348h-205l13 94h205l32 226h-205l13 95h205l49 349h96l-49 -349h225l49 349h95l-49 -349h212l-13 -95h-212l-32 -226h212l-13 -94h-212zM637 795h-226l-32 -226h226z" unicode="#" glyph-name="numbersign"/>
<glyph d="M411 -128v182q-136 25 -225.5 122t-89.5 218l1 27h125q8 -118 76.5 -186t180.5 -68q104 0 175 71t71 175t-59.5 163.5t-198.5 94.5q-168 42 -247 126t-79 221q0 124 73 211.5t197 112.5v154h137v-150q137 -27 219 -120t82 -221h-129q0 95 -64 158.5t-159 63.5 q-98 0 -159 -61.5t-61 -159.5q0 -90 49.5 -135.5t185.5 -80.5q349 -91 349 -370q0 -147 -88 -249.5t-225 -115.5v-183h-137z" unicode="$" glyph-name="dollar"/>
<glyph d="M426 1390q142 0 243.5 -104t101.5 -248q0 -138 -103 -241t-241 -103q-146 0 -247.5 102.5t-101.5 249.5q0 140 103.5 242t244.5 102zM426 1291q-100 0 -170 -74t-70 -179q0 -101 70.5 -173t169.5 -72q100 0 168.5 73t68.5 180q0 100 -70 172.5t-167 72.5zM1341 671 q142 0 243.5 -104t101.5 -248q0 -138 -103 -241t-241 -103q-146 0 -247.5 102.5t-101.5 249.5q0 140 103.5 242t244.5 102zM1341 572q-100 0 -170 -73.5t-70 -179.5q0 -101 70.5 -173t169.5 -72q100 0 168.5 73t68.5 180q0 100 -70 172.5t-167 72.5zM522 0l614 1365h106 l-615 -1365h-105z" unicode="%" horiz-adv-x="1764" glyph-name="percent"/>
<glyph d="M1087 888h154l-253 -482l345 -336l-97 -94l-313 305q-155 -306 -421 -306q-175 0 -299.5 124.5t-124.5 300.5q0 257 316 399l-20 21q-132 133 -132 267q0 124 96 213.5t230 89.5t231 -94.5t97 -226.5q0 -102 -70 -183.5t-197 -127.5l259 -254zM492 701q-17 -11 -20 -12 l-82 -41q-80 -39 -128 -110.5t-48 -152.5q0 -115 84 -199.5t199 -84.5q100 0 174 63.5t150 215.5zM530 857q229 82 229 227q0 71 -58 125.5t-134 54.5q-79 0 -133.5 -53t-54.5 -129q0 -81 130 -205q7 -6 21 -20z" unicode="&amp;" horiz-adv-x="1374" glyph-name="ampersand"/>
<glyph d="M86 967l-14 398h126l-14 -398h-98z" unicode="&apos;" horiz-adv-x="269" glyph-name="quotesingle"/>
<glyph d="M646 1406v-130q-195 -117 -313 -325t-118 -435q0 -244 114 -450.5t317 -331.5v-130q-200 67 -371 301q-197 268 -197 612q0 374 261 673q80 93 147.5 140t159.5 76z" unicode="(" horiz-adv-x="708" glyph-name="parenleft"/>
<glyph d="M61 -396v130q195 116 313 324.5t118 435.5q0 244 -114 451.5t-317 330.5v130q201 -67 371 -300q197 -270 197 -612q0 -375 -261 -674q-80 -92 -147.5 -139.5t-159.5 -76.5z" unicode=")" horiz-adv-x="708" glyph-name="parenright"/>
<glyph d="M348 1365h108l-3 -213l199 68l34 -103l-204 -62l127 -169l-87 -64l-123 174l-122 -172l-87 63l127 171l-201 62l33 103l202 -69z" unicode="*" horiz-adv-x="802" glyph-name="asterisk"/>
<glyph d="M574 744h362v-123h-362v-352h-123v352h-362v123h362v352h123v-352z" unicode="+" glyph-name="plus"/>
<glyph d="M29 -125l162 357h137l-162 -357h-137z" unicode="," horiz-adv-x="404" glyph-name="comma"/>
<glyph d="M0 579h477v-123h-477v123z" unicode="-" horiz-adv-x="477" glyph-name="hyphen"/>
<glyph d="M134 0v232h137v-232h-137z" unicode="." horiz-adv-x="404" glyph-name="period"/>
<glyph d="M-16 -355l574 1720h127l-579 -1720h-122z" unicode="/" horiz-adv-x="787" glyph-name="slash"/>
<glyph d="M72 494v406q0 214 124 352t317 138q190 0 315 -139t125 -351v-406q0 -220 -92 -343q-132 -176 -348 -176q-217 0 -349 176q-92 123 -92 343zM816 516v353q0 182 -67 273q-41 56 -106.5 90.5t-129.5 34.5q-65 0 -130 -34.5t-107 -90.5q-67 -91 -67 -273v-353 q0 -203 63 -291q90 -127 241 -127q150 0 241 127q62 88 62 291z" unicode="0" glyph-name="zero"/>
<glyph d="M500 0v1242h-234v123h371v-1365h-137z" unicode="1" glyph-name="one"/>
<glyph d="M61 0v123l479 462q159 153 208.5 228.5t49.5 162.5q0 119 -87 205t-207 86q-161 0 -249 -135q-49 -76 -49 -208h-134q0 212 119 339t318 127q177 0 301.5 -121.5t124.5 -294.5q0 -108 -55 -202.5t-195 -228.5l-440 -420h683v-123h-867z" unicode="2" glyph-name="two"/>
<glyph d="M289 1025h-135q0 158 99 261.5t250 103.5q143 0 242 -101.5t99 -248.5t-140 -258q110 -58 170 -154t60 -216q0 -177 -128.5 -307t-302.5 -130q-189 0 -315 129t-126 323h136q9 -128 55 -194q92 -135 241 -135q123 0 213 91.5t90 216.5q0 83 -42.5 156t-114.5 113 q-73 41 -200 41l-33 1v121q31 -2 46 -2q114 0 184 58t70 151q0 97 -60 159.5t-153 62.5q-91 0 -148 -67.5t-57 -174.5z" unicode="3" glyph-name="three"/>
<glyph d="M713 0v250h-688v123l662 992h163v-992h125v-123h-125v-250h-137zM713 373v804l-531 -804h531z" unicode="4" glyph-name="four"/>
<glyph d="M118 692l123 673h615v-123h-506l-68 -377q121 65 238 65q184 0 317.5 -141t133.5 -336q0 -200 -134.5 -339t-326.5 -139q-128 0 -235.5 63.5t-170.5 176.5q-47 83 -64 214h133q18 -148 110.5 -239.5t223.5 -91.5q135 0 231 103.5t96 249.5q0 148 -97 252.5t-234 104.5 q-156 0 -279 -155z" unicode="5" glyph-name="five"/>
<glyph d="M548 1365h157l-318 -468q81 32 152 32q179 0 309.5 -141.5t130.5 -334.5q0 -198 -137.5 -338t-332.5 -140q-190 0 -327 140.5t-137 334.5q0 103 32 183t133 229zM511 806q-136 0 -233 -102.5t-97 -246.5q0 -148 97 -253.5t234 -105.5q135 0 232.5 103.5t97.5 246.5 q0 148 -97 253t-234 105z" unicode="6" glyph-name="six"/>
<glyph d="M221 0l562 1242h-648v123h789v-123l-559 -1242h-144z" unicode="7" glyph-name="seven"/>
<glyph d="M309 763q-161 93 -161 275q0 147 104 249.5t253 102.5q157 0 262.5 -103t105.5 -256q0 -188 -163 -268q110 -51 173.5 -148t63.5 -214q0 -176 -129.5 -301t-312.5 -125q-177 0 -303 124.5t-126 300.5q0 117 65.5 219t167.5 144zM509 692q-123 0 -210 -89t-87 -215 q0 -119 87 -204.5t208 -85.5q127 0 215 88t88 214q0 121 -88 206.5t-213 85.5zM513 1267q-94 0 -161.5 -65t-67.5 -155q0 -94 66.5 -160.5t160.5 -66.5q91 0 158 66t67 156q0 93 -65 159t-158 66z" unicode="8" glyph-name="eight"/>
<glyph d="M476 0h-157l318 468q-81 -32 -153 -32q-178 0 -308.5 141.5t-130.5 334.5q0 198 137.5 338t332.5 140q190 0 327 -140t137 -335q0 -103 -32 -183t-133 -230zM512 1267q-135 0 -232.5 -103.5t-97.5 -246.5q0 -148 97 -253t234 -105q136 0 233 102.5t97 246.5 q0 148 -97 253.5t-234 105.5z" unicode="9" glyph-name="nine"/>
<glyph d="M134 0v232h137v-232h-137zM134 778v232h137v-232h-137z" unicode=":" horiz-adv-x="404" glyph-name="colon"/>
<glyph d="M29 -125l162 357h137l-162 -357h-137zM191 778v232h137v-232h-137z" unicode=";" horiz-adv-x="404" glyph-name="semicolon"/>
<glyph d="M955 1155v-130l-747 -337l747 -337v-129l-887 410v114z" unicode="&lt;" glyph-name="less"/>
<glyph d="M89 867h847v-123h-847v123zM89 621h847v-123h-847v123z" unicode="=" glyph-name="equal"/>
<glyph d="M69 222v129l747 337l-747 337v129l887 -409v-114z" unicode="&gt;" glyph-name="greater"/>
<glyph d="M396 0v232h137v-232h-137zM161 939h-130l-1 36q0 171 128.5 293t309.5 122q176 0 294.5 -119.5t118.5 -296.5q0 -147 -162 -300q-103 -98 -142 -165t-44 -153h-137v19q0 178 194 356q95 88 125 136.5t30 117.5q0 113 -85 194.5t-202 81.5q-129 0 -213 -91t-84 -231z" unicode="?" horiz-adv-x="955" glyph-name="question"/>
<glyph d="M1048 1011h96l-85 -439q-13 -65 -13 -100q0 -94 83 -94q94 0 167 122.5t73 279.5q0 229 -158 374.5t-406 145.5q-256 0 -434.5 -179.5t-178.5 -437.5q0 -231 137 -401q176 -218 502 -218q228 0 438 100l28 -87q-217 -102 -467 -102q-363 0 -567 242q-167 198 -167 467 q0 159 66.5 302.5t184.5 240.5q198 163 453 163q288 0 473 -172.5t185 -441.5q0 -189 -101.5 -335t-232.5 -146q-64 0 -104.5 37.5t-45.5 103.5q-95 -149 -256 -149q-124 0 -206 93t-82 233q0 180 104 302t257 122q170 0 230 -165zM799 939q-107 0 -184 -93t-77 -221 q0 -108 55 -174.5t145 -66.5q104 0 174 98.5t70 244.5q0 97 -49.5 154.5t-133.5 57.5z" unicode="@" horiz-adv-x="1553" glyph-name="at"/>
<glyph d="M10 0l585 1365h152l586 -1365h-149l-197 460h-635l-200 -460h-142zM404 583h530l-263 627z" unicode="A" horiz-adv-x="1343" glyph-name="A"/>
<glyph d="M147 0v1365h343q206 0 327 -98t121 -265q0 -159 -151 -274q109 -45 168 -134t59 -209q0 -174 -132 -284q-68 -58 -152 -79.5t-239 -21.5h-344zM284 123h191q200 0 282 51q52 33 86 92.5t34 119.5q0 153 -133 224q-81 44 -292 44h-168v-531zM284 777h171q183 0 255 52 q91 67 91 179q0 96 -75 164q-77 70 -259 70h-183v-465z" unicode="B" horiz-adv-x="1090" glyph-name="B"/>
<glyph d="M1263 358h152q-95 -177 -263.5 -280t-362.5 -103q-298 0 -507.5 205t-209.5 496q0 303 206.5 508.5t511.5 205.5q229 0 411 -134q157 -115 209 -240h-152q-78 116 -205.5 183.5t-269.5 67.5q-231 0 -402.5 -175.5t-171.5 -411.5q0 -234 173.5 -408t406.5 -174 q278 0 474 260z" unicode="C" horiz-adv-x="1470" glyph-name="C"/>
<glyph d="M147 0v1365h391q274 0 452 -114q143 -92 227 -245t84 -323q0 -162 -73.5 -308t-204.5 -243q-178 -132 -476 -132h-400zM284 123h198q182 0 287 28.5t194 101.5q201 166 201 430q0 273 -220 439q-160 120 -462 120h-198v-1119z" unicode="D" horiz-adv-x="1374" glyph-name="D"/>
<glyph d="M147 0v1365h748v-123h-611v-491h591v-123h-591v-505h611v-123h-748z" unicode="E" horiz-adv-x="991" glyph-name="E"/>
<glyph d="M147 0v1365h691v-123h-554v-495h533v-123h-533v-624h-137z" unicode="F" horiz-adv-x="896" glyph-name="F"/>
<glyph d="M600 628h927q-23 -277 -230.5 -465t-491.5 -188q-313 0 -531 224q-202 207 -202 478q0 297 213 505t517 208q235 0 419 -128q174 -122 223 -260h-155q-66 117 -199.5 191t-279.5 74q-251 0 -426 -172t-175 -419q0 -222 160 -392q82 -87 199.5 -136.5t242.5 -49.5 q190 0 348.5 117t202.5 290h-762v123z" unicode="G" horiz-adv-x="1596" glyph-name="G"/>
<glyph d="M147 0v1365h137v-602h708v602h137v-1365h-137v640h-708v-640h-137z" unicode="H" horiz-adv-x="1277" glyph-name="H"/>
<glyph d="M147 0v1365h137v-1365h-137z" unicode="I" horiz-adv-x="431" glyph-name="I"/>
<glyph d="M731 1365v-962q0 -171 -46 -252q-99 -176 -322 -176q-152 0 -253.5 98t-109.5 251h134q8 -98 74 -162t159 -64q147 0 201 121q26 57 26 184v962h137z" unicode="J" horiz-adv-x="864" glyph-name="J"/>
<glyph d="M147 0v1365h137v-785l629 785h175l-540 -665l540 -700h-170l-457 591l-177 -217v-374h-137z" unicode="K" horiz-adv-x="1108" glyph-name="K"/>
<glyph d="M147 0v1365h137v-1242h565v-123h-702z" unicode="L" horiz-adv-x="886" glyph-name="L"/>
<glyph d="M147 0v1365h211l497 -1162l496 1162h212v-1365h-137v1215l-514 -1215h-117l-511 1215v-1215h-137z" unicode="M" horiz-adv-x="1711" glyph-name="M"/>
<glyph d="M147 0v1365h185l765 -1133v1133h137v-1365h-137l-813 1201v-1201h-137z" unicode="N" horiz-adv-x="1382" glyph-name="N"/>
<glyph d="M795 1390q301 0 512 -208.5t211 -505.5q0 -287 -213.5 -494t-509.5 -207q-301 0 -512 209t-211 506q0 286 214 493t509 207zM795 1267q-238 0 -412 -172t-174 -408q0 -244 171.5 -416.5t414.5 -172.5q239 0 412.5 171t173.5 407q0 245 -171.5 418t-414.5 173z" unicode="O" horiz-adv-x="1591" glyph-name="O"/>
<glyph d="M147 0v1365h381q260 0 384 -101q139 -114 139 -309q0 -190 -130 -297t-359 -107h-278v-551h-137zM284 674h256q191 0 276 70q98 79 98 212q0 159 -133 237q-53 31 -108 40t-191 9h-198v-568z" unicode="P" horiz-adv-x="1102" glyph-name="P"/>
<glyph d="M1521 103v-127q-101 0 -164 24t-141 93q-175 -118 -401 -118q-314 0 -528.5 204.5t-214.5 505.5q0 266 183 469q214 236 553 236q315 0 525 -205t210 -512q0 -287 -230 -505q97 -66 182 -66q8 0 26 1zM288 399q71 -137 215 -219t314 -82q172 0 294 90q-23 17 -28 21 l-79 62q-210 166 -504 166q-113 0 -212 -38zM232 515q145 45 281 45q203 0 354.5 -64t350.5 -235q188 184 188 424q0 237 -174 409.5t-413 172.5q-259 0 -435 -171.5t-176 -424.5q0 -70 24 -156z" unicode="Q" horiz-adv-x="1615" glyph-name="Q"/>
<glyph d="M147 0v1365h347q208 0 307 -38q126 -48 200 -157t74 -246q0 -171 -114 -287.5t-292 -127.5l385 -509h-171l-464 618h47q149 0 217 13t125 51q130 88 130 250q0 152 -123 242q-94 68 -292 68h-239v-1242h-137z" unicode="R" horiz-adv-x="1156" glyph-name="R"/>
<glyph d="M30 382h146q15 -135 89.5 -209.5t195.5 -74.5q110 0 191.5 81.5t81.5 192.5q0 109 -73 177t-233 109q-115 30 -173.5 60t-101.5 80q-78 92 -78 222q0 161 109.5 265.5t277.5 104.5q158 0 267 -107t109 -263h-143q-8 110 -76.5 178.5t-170.5 68.5q-100 0 -168 -70 t-68 -172q0 -95 58 -147.5t210 -94.5q132 -37 181.5 -60.5t97.5 -71.5q112 -112 112 -274q0 -167 -122 -284.5t-295 -117.5q-181 0 -298.5 112.5t-125.5 294.5z" unicode="S" horiz-adv-x="946" glyph-name="S"/>
<glyph d="M339 0v1242h-314v123h763v-123h-312v-1242h-137z" unicode="T" horiz-adv-x="812" glyph-name="T"/>
<glyph d="M134 1365h137v-851q0 -190 87.5 -298.5t240.5 -108.5t240.5 108.5t87.5 298.5v851h137v-851q0 -259 -127 -396q-132 -143 -338 -143t-338 143q-127 137 -127 396v851z" unicode="U" horiz-adv-x="1197" glyph-name="U"/>
<glyph d="M559 0l-563 1365h150l481 -1194l484 1194h148l-567 -1365h-133z" unicode="V" horiz-adv-x="1255" glyph-name="V"/>
<glyph d="M418 0l-388 1365h141l334 -1189l327 1189h129l327 -1188l336 1188h139l-391 -1365h-174l-303 1119l-300 -1119h-177z" unicode="W" horiz-adv-x="1793" glyph-name="W"/>
<glyph d="M10 0l464 698l-438 667h160l363 -546l361 546h158l-438 -667l466 -698h-162l-385 584l-388 -584h-161z" unicode="X" horiz-adv-x="1115" glyph-name="X"/>
<glyph d="M477 0v456l-474 909h151l390 -766l400 766h149l-479 -909v-456h-137z" unicode="Y" horiz-adv-x="1096" glyph-name="Y"/>
<glyph d="M52 0v123l671 1119h-651v123h805v-123l-671 -1119h691v-123h-845z" unicode="Z" horiz-adv-x="949" glyph-name="Z"/>
<glyph d="M513 -263v-133q-177 51 -274.5 184.5t-97.5 325.5v779q0 212 117 348q113 131 255 165v-133q-240 -96 -240 -379v-756q0 -159 52.5 -246.5t187.5 -154.5z" unicode="[" horiz-adv-x="708" glyph-name="bracketleft"/>
<glyph d="M681 -355l-579 1720h126l575 -1720h-122z" unicode="\" horiz-adv-x="787" glyph-name="backslash"/>
<glyph d="M195 1273v133q178 -51 275 -184.5t97 -325.5v-779q0 -212 -117 -348q-113 -131 -255 -165v133q240 96 240 379v756q0 159 -52 246t-188 155z" unicode="]" horiz-adv-x="708" glyph-name="bracketright"/>
<glyph d="M201 758h-142l368 611h171l368 -611h-144l-311 508z" unicode="^" glyph-name="asciicircum"/>
<glyph d="M0 -141h1024v-120h-1024v120z" unicode="_" glyph-name="underscore"/>
<glyph d="M639 1219l-72 -83l-319 265l73 86z" unicode="`" glyph-name="grave"/>
<glyph d="M1140 1010v-1010h-130v177q-148 -202 -395 -202q-119 0 -229.5 48t-183.5 133q-133 151 -133 343q0 228 156.5 382t386.5 154q255 0 398 -204v179h130zM610 919q-165 0 -288 -122t-123 -285q0 -175 121.5 -298t293.5 -123q160 0 278 121.5t118 285.5q0 177 -116 299 t-284 122z" unicode="a" horiz-adv-x="1274" glyph-name="a"/>
<glyph d="M134 0v1365h137v-529q136 199 396 199q220 0 378.5 -155t158.5 -370q0 -221 -157 -378t-378 -157q-127 0 -234 52.5t-171 145.5v-173h-130zM674 919q-176 0 -294 -117t-118 -291q0 -181 116.5 -300.5t293.5 -119.5q166 0 284 122t118 294q0 171 -117 291.5t-283 120.5z " unicode="b" horiz-adv-x="1272" glyph-name="b"/>
<glyph d="M962 296h152q-167 -321 -492 -321q-234 0 -393.5 153t-159.5 376q0 221 159.5 376t387.5 155q167 0 302 -89.5t196 -240.5h-152q-58 100 -150.5 157t-197.5 57q-175 0 -295 -119.5t-120 -292.5q0 -175 118.5 -295.5t290.5 -120.5q207 0 354 205z" unicode="c" horiz-adv-x="1168" glyph-name="c"/>
<glyph d="M1136 1365v-1365h-123v182q-162 -207 -397 -207q-231 0 -389 154t-158 379q0 220 158.5 373.5t386.5 153.5q237 0 392 -186v516h130zM604 919q-166 0 -285.5 -121t-119.5 -288q0 -172 120 -295.5t287 -123.5q168 0 287 123t119 296q0 170 -119.5 289.5t-288.5 119.5z" unicode="d" horiz-adv-x="1270" glyph-name="d"/>
<glyph d="M1122 457h-916q8 -151 123.5 -258.5t270.5 -107.5q109 0 210 69t140 170h142q-54 -155 -192 -255t-299 -100q-221 0 -376 154t-155 374q0 222 154 377t373 155q140 0 262 -72t193 -197q70 -123 70 -309zM986 573q-37 158 -142 252t-244 94q-146 0 -255 -96.5t-136 -249.5 h777z" unicode="e" horiz-adv-x="1192" glyph-name="e"/>
<glyph d="M175 0v894h-157v116h157l1 19q19 329 365 329h22v-123h-20q-238 0 -238 -204v-21h258v-116h-258v-894h-130z" unicode="f" horiz-adv-x="573" glyph-name="f"/>
<glyph d="M1120 1010v-888q0 -130 -22.5 -201t-86.5 -144q-71 -80 -180 -126.5t-227 -46.5q-176 0 -310.5 100t-186.5 270h133q74 -135 162 -194.5t213 -59.5q163 0 269 104t106 264v111q-45 -102 -152.5 -163t-240.5 -61q-218 0 -372.5 154.5t-154.5 372.5q0 219 152.5 376 t364.5 157q260 0 403 -207v182h130zM588 919q-160 0 -274 -118.5t-114 -284.5q0 -181 114 -303t283 -122q161 0 277 122t116 291q0 173 -117.5 294t-284.5 121z" unicode="g" horiz-adv-x="1253" glyph-name="g"/>
<glyph d="M134 0v1365h130v-486q49 72 132 114t176 42q203 0 326 -131.5t123 -348.5v-555h-130v555q0 164 -87.5 264t-231.5 100q-142 0 -238 -110q-70 -79 -70 -254v-555h-130z" unicode="h" horiz-adv-x="1148" glyph-name="h"/>
<glyph d="M134 0v1010h130v-1010h-130zM134 1133v232h130v-232h-130z" unicode="i" horiz-adv-x="397" glyph-name="i"/>
<glyph d="M264 1010v-941q0 -147 -26.5 -222t-98.5 -131q-90 -71 -210 -71v132q112 6 158.5 72t46.5 220v941h130zM134 1133v232h130v-232h-130z" unicode="j" horiz-adv-x="397" glyph-name="j"/>
<glyph d="M134 0v1365h130v-972l475 617h165l-398 -509l418 -501h-166l-333 399l-161 -206v-193h-130z" unicode="k" horiz-adv-x="943" glyph-name="k"/>
<glyph d="M134 0v1365h130v-1365h-130z" unicode="l" horiz-adv-x="397" glyph-name="l"/>
<glyph d="M134 0v1010h130v-117q86 142 276 142q209 0 344 -195q43 89 135.5 142t203.5 53q173 0 299 -136q107 -115 107 -299v-600h-130v586q0 148 -77.5 240.5t-201.5 92.5q-126 0 -212 -101q-61 -72 -61 -232v-586h-130v600q0 138 -79 228.5t-198 90.5q-126 0 -198.5 -85.5 t-72.5 -233.5v-600h-135z" unicode="m" horiz-adv-x="1756" glyph-name="m"/>
<glyph d="M134 0v1010h130v-131q140 156 311 156q202 0 324 -131t122 -349v-555h-130v555q0 164 -86.5 264t-228.5 100q-140 0 -235 -110q-69 -79 -69 -254v-555h-138z" unicode="n" horiz-adv-x="1148" glyph-name="n"/>
<glyph d="M600 1035q215 0 370 -158t155 -378q0 -211 -156.5 -367.5t-367.5 -156.5q-222 0 -376.5 156t-154.5 381q0 213 157.5 368t372.5 155zM600 919q-164 0 -282 -121.5t-118 -290.5q0 -175 116 -295.5t284 -120.5q166 0 280.5 121.5t114.5 298.5q0 167 -116.5 287.5 t-278.5 120.5z" unicode="o" horiz-adv-x="1195" glyph-name="o"/>
<glyph d="M134 1010h130v-173q64 94 170.5 146t234.5 52q221 0 378 -157t157 -378q0 -215 -158.5 -370t-378.5 -155q-260 0 -396 199v-529h-137v1365zM672 919q-172 0 -290.5 -117.5t-118.5 -288.5q0 -185 115.5 -303.5t295.5 -118.5q166 0 283 120.5t117 291.5q0 172 -118 294 t-284 122z" unicode="p" horiz-adv-x="1272" glyph-name="p"/>
<glyph d="M1131 1010v-1365h-130v529q-133 -199 -395 -199q-220 0 -378 155t-158 370q0 221 157 378t377 157q127 0 235.5 -53.5t167.5 -144.5v173h124zM601 919q-166 0 -283.5 -122t-117.5 -294q0 -171 116.5 -291.5t282.5 -120.5q176 0 292.5 116.5t116.5 292.5q0 182 -115 300.5 t-292 118.5z" unicode="q" horiz-adv-x="1264" glyph-name="q"/>
<glyph d="M134 0v1010h130v-145q44 85 110.5 123t184.5 46v-136q-122 -12 -198 -82q-90 -84 -90 -229v-587h-137z" unicode="r" horiz-adv-x="584" glyph-name="r"/>
<glyph d="M49 298h137q5 -94 56 -150.5t131 -56.5q74 0 128 53t54 126q0 71 -45 115.5t-155 80.5q-147 49 -208 113t-61 168q0 119 83.5 203.5t199.5 84.5q121 0 202.5 -77.5t87.5 -197.5h-139q-5 73 -46.5 116t-106.5 43q-58 0 -104.5 -46.5t-46.5 -103.5q0 -61 39.5 -98 t140.5 -71q158 -53 223.5 -120.5t65.5 -177.5q0 -143 -88.5 -235t-226.5 -92q-141 0 -231 90.5t-90 232.5z" unicode="s" horiz-adv-x="768" glyph-name="s"/>
<glyph d="M175 0v894h-212v116h212v355h130v-355h241v-116h-241v-894h-130z" unicode="t" horiz-adv-x="538" glyph-name="t"/>
<glyph d="M1012 1010v-1010h-123v156q-101 -181 -339 -181q-199 0 -320 136q-103 116 -103 342v557h130v-557q0 -170 83 -266t229 -96q142 0 227.5 99t85.5 263v557h130z" unicode="u" horiz-adv-x="1146" glyph-name="u"/>
<glyph d="M425 0l-425 1010h139l354 -850l363 850h138l-426 -1010h-143z" unicode="v" horiz-adv-x="994" glyph-name="v"/>
<glyph d="M404 0l-384 1010h135l320 -846l232 723h113l234 -723l323 846h132l-385 -1010h-146l-215 671l-213 -671h-146z" unicode="w" horiz-adv-x="1530" glyph-name="w"/>
<glyph d="M20 0l345 514l-345 496h156l264 -390l265 390h158l-347 -496l347 -514h-154l-269 404l-266 -404h-154z" unicode="x" horiz-adv-x="884" glyph-name="x"/>
<glyph d="M229 -355l165 387l-394 978h149l321 -805l342 805h146l-584 -1365h-145z" unicode="y" horiz-adv-x="958" glyph-name="y"/>
<glyph d="M44 0v116l560 778h-542v116h695v-119l-555 -775h589v-116h-747z" unicode="z" horiz-adv-x="821" glyph-name="z"/>
<glyph d="M183 504q70 -37 97.5 -90t27.5 -149v-325q0 -112 40.5 -152t154.5 -40v-109l-34 -1q-161 0 -225.5 67.5t-64.5 236.5v321q0 88 -26.5 131.5t-90.5 61.5v103q63 18 90 60.5t27 125.5v348q0 150 67 214.5t224 64.5l33 -1v-110q-111 0 -153 -39.5t-42 -144.5v-339 q0 -98 -27 -148.5t-98 -85.5z" unicode="{" horiz-adv-x="708" glyph-name="braceleft"/>
<glyph d="M447 1365h130v-1706h-130v1706z" unicode="|" glyph-name="bar"/>
<glyph d="M524 507q-69 36 -97 89t-28 149v325q0 112 -40.5 152t-154.5 40v109l34 1q161 0 225.5 -67.5t64.5 -236.5v-321q0 -88 26.5 -131.5t91.5 -61.5v-103q-64 -18 -91 -60.5t-27 -125.5v-348q0 -150 -67 -214.5t-224 -64.5l-33 1v110q111 0 153 39.5t42 144.5v339 q0 98 27 148.5t98 86.5z" unicode="}" horiz-adv-x="708" glyph-name="braceright"/>
<glyph d="M270 1200l-79 51q64 126 126 176.5t153 50.5q75 0 229 -74q142 -69 204 -69q58 0 99.5 32.5t90.5 114.5l80 -47q-112 -224 -281 -224q-76 0 -172 45l-119 56q-89 42 -144 42q-102 0 -187 -154z" unicode="~" horiz-adv-x="1365" glyph-name="asciitilde"/>
<glyph d="M161 -355v1013h137v-1013h-137zM161 778v232h137v-232h-137z" unicode="¡" horiz-adv-x="459" glyph-name="exclamdown"/>
<glyph d="M473 115v165q-165 13 -281 136t-116 286q0 171 112.5 292.5t284.5 138.5v172h137v-172q121 -18 210 -91.5t128 -186.5h-145q-83 152 -285 152q-131 0 -221.5 -87t-90.5 -212t93.5 -214.5t224.5 -89.5q157 0 272 133h142q-37 -102 -124 -170.5t-204 -86.5v-165h-137z" unicode="¢" glyph-name="cent"/>
<glyph d="M54 0v123h257q79 79 79 214q0 86 -33.5 147t-126.5 141q-7 6 -19 17h-203v123h113q-45 69 -45 174q0 184 126.5 317.5t300.5 133.5q158 0 281.5 -112.5t141.5 -273.5h-129q-23 109 -108 186t-183 77q-124 0 -208.5 -93.5t-84.5 -230.5q0 -98 52 -178h453v-123h-324 q133 -141 133 -306q0 -95 -55 -213h60q157 0 243 74t86 209q0 38 -13 90h133q16 -54 16 -107q0 -166 -125 -284q-113 -105 -335 -105h-483z" unicode="£" glyph-name="sterling"/>
<glyph d="M248 970l-147 147l73 74l148 -148q128 101 286 101q159 0 288 -101l153 152l73 -73l-152 -153q98 -130 98 -276q0 -165 -99 -297l148 -149l-73 -73l-148 147q-129 -99 -290 -99q-157 0 -284 99l-153 -152l-73 73l153 153q-102 134 -102 292q0 156 101 283zM608 1029 q-137 0 -237.5 -101.5t-100.5 -240.5q0 -145 98.5 -247.5t238.5 -102.5q141 0 240.5 101.5t99.5 246.5q0 141 -100 242.5t-239 101.5z" unicode="¤" horiz-adv-x="1217" glyph-name="currency"/>
<glyph d="M441 441h-324v116h308l-104 212h-245v116h187l-236 480h151l330 -697l339 697h150l-239 -480h190v-116h-248l-106 -212h313v-116h-329v-441h-137v441z" unicode="¥" glyph-name="yen"/>
<glyph d="M447 1365h130v-677h-130v677zM447 314h130v-655h-130v655z" unicode="¦" glyph-name="brokenbar"/>
<glyph d="M835 1120h-130q-5 63 -61.5 105t-135.5 42q-82 0 -134.5 -50.5t-52.5 -129.5q0 -98 112 -154l272 -135q216 -107 216 -260q0 -77 -41 -151t-108 -117q95 -83 95 -205q0 -137 -99 -231.5t-243 -94.5q-165 0 -276.5 109t-111.5 270h129q8 -114 76.5 -185t171.5 -71 q95 0 159 56.5t64 140.5q0 60 -36.5 101.5t-135.5 92.5l-339 174q-56 29 -90 83t-34 113q0 162 164 284q-74 75 -74 187q0 124 91 210t221 86q134 0 230 -78.5t101 -191.5zM346 838q-50 -31 -82 -83t-32 -103q0 -94 103 -145l347 -172q49 30 79 81t30 104q0 94 -121 155z " unicode="§" glyph-name="section"/>
<glyph d="M314 1399h130v-232h-130v232zM580 1399h130v-232h-130v232z" unicode="¨" glyph-name="dieresis"/>
<glyph d="M1107 511h111q-64 -113 -171.5 -176t-234.5 -63q-191 0 -325 122.5t-134 297.5q0 182 132 305t327 123q128 0 243.5 -67.5t157.5 -166.5h-110q-48 68 -126.5 108t-163.5 40q-147 0 -253.5 -100.5t-106.5 -238.5q0 -136 107 -236.5t251 -100.5q173 0 296 153zM803 1390 q294 0 500.5 -208.5t206.5 -505.5q0 -287 -209 -494t-498 -207q-294 0 -500.5 209t-206.5 506q0 286 209.5 493t497.5 207zM803 1333q-261 0 -451 -191.5t-190 -453.5q0 -271 188 -463.5t453 -192.5q261 0 451 191t190 453q0 272 -188 464.5t-453 192.5z" unicode="©" horiz-adv-x="1606" glyph-name="copyright"/>
<glyph d="M648 608h-614v68h614v-68zM618 1365v-546h-82v80q-89 -93 -202 -93q-123 0 -210 83t-87 200q0 123 85 206t210 83q129 0 204 -93v80h82zM330 1303q-84 0 -147.5 -62t-63.5 -145q0 -89 62.5 -152t151.5 -63q82 0 142.5 62t60.5 146q0 90 -59.5 152t-146.5 62z" unicode="ª" horiz-adv-x="683" glyph-name="ordfeminine"/>
<glyph d="M298 148l-209 371l209 368l109 -58l-174 -310l174 -311zM619 148l-209 371l209 368l108 -58l-173 -310l173 -311z" unicode="«" horiz-adv-x="830" glyph-name="guillemotleft"/>
<glyph d="M825 0v425h-757v121h887v-546h-130z" unicode="¬" glyph-name="logicalnot"/>
<glyph d="M545 287v819h226q131 0 195 -23q80 -28 128.5 -93.5t48.5 -145.5q0 -103 -70 -175t-179 -81l244 -301h-125l-304 379h44q153 0 211 36q79 50 79 142q0 86 -65 131t-189 45h-144v-733h-100zM803 1390q294 0 500.5 -208.5t206.5 -505.5q0 -287 -209 -494t-498 -207 q-294 0 -500.5 209t-206.5 506q0 286 209.5 493t497.5 207zM803 1333q-261 0 -451 -191.5t-190 -453.5q0 -271 188 -463.5t453 -192.5q261 0 451 191t190 453q0 272 -188 464.5t-453 192.5z" unicode="®" horiz-adv-x="1606" glyph-name="registered"/>
<glyph d="M214 1324h595v-113h-595v113z" unicode="¯" glyph-name="macron"/>
<glyph d="M411 1405q131 0 218.5 -89.5t87.5 -223.5q0 -132 -89 -222.5t-218 -90.5q-130 0 -219 91t-89 224q0 129 90.5 220t218.5 91zM408 1288q-80 0 -135.5 -58.5t-55.5 -142.5q0 -76 56.5 -133.5t130.5 -57.5q84 0 140 55.5t56 137.5q0 85 -55 142t-137 57z" unicode="°" horiz-adv-x="819" glyph-name="degree"/>
<glyph d="M618 1356v-502h485v-113h-485v-477h-113v477h-485v113h485v502h113zM22 113h1073v-113h-1073v113z" unicode="±" horiz-adv-x="1124" glyph-name="plusminus"/>
<glyph d="M49 546v82l304 275q99 89 129.5 132t30.5 94q0 66 -52.5 115t-122.5 49q-88 0 -136 -52.5t-48 -149.5h-98v12q0 15 1 27q5 108 84.5 178.5t196.5 70.5q114 0 194.5 -73.5t80.5 -178.5q0 -65 -35 -122t-125 -137l-264 -236h420v-86h-560z" unicode="²" horiz-adv-x="680" glyph-name="twosuperior"/>
<glyph d="M206 1151h-98q0 101 63 164.5t163 63.5q93 0 157.5 -62t64.5 -151q0 -86 -82 -150q64 -32 101.5 -91t37.5 -128q0 -107 -83 -186t-195 -79q-125 0 -205.5 79t-80.5 201h99q8 -95 55 -144.5t130 -49.5q70 0 125 52t55 118q0 59 -34.5 105.5t-90.5 64.5q-36 12 -121 12v85 q24 -2 36 -2q68 0 110.5 32t42.5 84q0 53 -35 88.5t-88 35.5q-60 0 -93.5 -37.5t-33.5 -104.5z" unicode="³" horiz-adv-x="680" glyph-name="threesuperior"/>
<glyph d="M385 1219l318 268l73 -86l-319 -265z" unicode="´" glyph-name="acute"/>
<glyph d="M905 1024v-756q0 -83 27.5 -134t73.5 -51q37 0 65.5 40.5t35.5 100.5l54 -3q-45 -248 -246 -248q-77 0 -121 45t-68 147q-163 -192 -318 -192q-91 0 -201 94q0 -92 23 -175q39 -138 39 -189q0 -69 -27.5 -110.5t-73.5 -41.5q-42 0 -71 41t-29 101q0 57 16 118l19 74 q24 90 24 157v982h180v-678q0 -107 50 -167t138 -60q126 0 229 148v757h181z" unicode="µ" horiz-adv-x="1180" glyph-name="mu"/>
<glyph d="M422 -204v846h-32q-148 0 -241.5 99.5t-93.5 258.5q0 175 105.5 270t301.5 95h473v-103h-118v-1466h-113v1466h-168v-1466h-114z" unicode="¶" glyph-name="paragraph"/>
<glyph d="M134 401v232h137v-232h-137z" unicode="·" horiz-adv-x="404" glyph-name="periodcentered"/>
<glyph d="M563 0l-46 -111q32 13 61 13q64 0 104 -41t40 -108q0 -72 -48.5 -119.5t-123.5 -47.5q-127 0 -157 131l81 10q15 -64 85 -64q35 0 57.5 24.5t22.5 63.5q0 37 -25.5 62t-62.5 25q-43 0 -76 -41l-55 32l75 171h68z" unicode="¸" glyph-name="cedilla"/>
<glyph d="M326 546v733h-148v86h248v-819h-100z" unicode="¹" horiz-adv-x="680" glyph-name="onesuperior"/>
<glyph d="M648 608h-614v68h614v-68zM343 1378q117 0 201 -85.5t84 -203.5q0 -114 -85 -198.5t-200 -84.5q-120 0 -204 84.5t-84 205.5q0 115 85.5 198.5t202.5 83.5zM343 1303q-86 0 -146 -62.5t-60 -151.5q0 -86 60.5 -147t145.5 -61q86 0 144.5 62t58.5 152q0 85 -60 146.5 t-143 61.5z" unicode="º" horiz-adv-x="683" glyph-name="ordmasculine"/>
<glyph d="M531 148l-108 60l174 311l-174 310l108 58l209 -368zM210 148l-108 60l174 311l-174 310l108 58l210 -368z" unicode="»" horiz-adv-x="830" glyph-name="guillemotright"/>
<glyph d="M326 546v733h-148v86h248v-819h-100zM488 0l614 1365h106l-614 -1365h-106zM1477 0v147h-434v81l421 591h113v-586h78v-86h-78v-147h-100zM1477 233v446l-315 -446h315z" unicode="¼" horiz-adv-x="1697" glyph-name="onequarter"/>
<glyph d="M326 546v733h-148v86h248v-819h-100zM488 0l614 1365h106l-614 -1365h-106zM1066 0v82l304 275q98 89 129 132.5t31 93.5q0 66 -52.5 115t-122.5 49q-88 0 -136 -52.5t-48 -149.5h-98v12q0 15 1 27q5 108 84.5 178.5t196.5 70.5q114 0 194.5 -73.5t80.5 -178.5 q0 -65 -35 -122t-125 -137l-264 -236h420v-86h-560z" unicode="½" horiz-adv-x="1697" glyph-name="onehalf"/>
<glyph d="M206 1151h-98q0 101 63 164.5t163 63.5q93 0 157.5 -62t64.5 -151q0 -86 -82 -150q64 -32 101.5 -91t37.5 -128q0 -107 -83 -186t-195 -79q-125 0 -205.5 79t-80.5 201h99q8 -95 55 -144.5t130 -49.5q70 0 125 52t55 118q0 59 -34.5 105.5t-90.5 64.5q-36 12 -121 12v85 q24 -2 36 -2q68 0 110.5 32t42.5 84q0 53 -35 88.5t-88 35.5q-60 0 -93.5 -37.5t-33.5 -104.5zM489 0l613 1365h106l-614 -1365h-105zM1477 0v147h-433v81l420 591h113v-586h78v-86h-78v-147h-100zM1477 233v446l-314 -446h314z" unicode="¾" horiz-adv-x="1697" glyph-name="threequarters"/>
<glyph d="M559 1010v-232h-137v232h137zM794 72h130l1 -36q0 -172 -128.5 -294t-309.5 -122q-176 0 -294.5 119.5t-118.5 297.5q0 146 162 300q103 97 142 164t44 153h137v-19q0 -178 -194 -355q-95 -88 -125 -136.5t-30 -116.5q0 -113 85 -195t202 -82q130 0 213.5 91t83.5 231z " unicode="¿" horiz-adv-x="955" glyph-name="questiondown"/>
<glyph d="M10 0l585 1365h152l586 -1365h-149l-197 460h-635l-200 -460h-142zM404 583h530l-263 627zM811 1580l-60 -99l-356 212l60 102z" unicode="À" horiz-adv-x="1343" glyph-name="Agrave"/>
<glyph d="M10 0l585 1365h152l586 -1365h-149l-197 460h-635l-200 -460h-142zM404 583h530l-263 627zM532 1580l356 215l60 -102l-356 -212z" unicode="Á" horiz-adv-x="1343" glyph-name="Aacute"/>
<glyph d="M10 0l585 1365h152l586 -1365h-149l-197 460h-635l-200 -460h-142zM404 583h530l-263 627zM344 1502l268 231h122l264 -231h-165l-159 136l-162 -136h-168z" unicode="Â" horiz-adv-x="1343" glyph-name="Acircumflex"/>
<glyph d="M10 0l585 1365h152l586 -1365h-149l-197 460h-635l-200 -460h-142zM404 583h530l-263 627zM917 1707l66 -82q-70 -103 -180 -103q-55 0 -140 40l-40 19q-40 18 -74 18q-56 0 -111 -71l-64 82q74 105 175 105q52 0 135 -37l41 -18l41 -18q20 -7 42 -7q59 0 109 72z" unicode="Ã" horiz-adv-x="1343" glyph-name="Atilde"/>
<glyph d="M10 0l585 1365h152l586 -1365h-149l-197 460h-635l-200 -460h-142zM404 583h530l-263 627zM466 1734h137v-232h-137v232zM739 1734h137v-232h-137v232z" unicode="Ä" horiz-adv-x="1343" glyph-name="Adieresis"/>
<glyph d="M10 0l585 1365h152l586 -1365h-149l-197 460h-635l-200 -460h-142zM404 583h530l-263 627zM672 1857q79 0 135 -56t56 -135t-56 -135t-135 -56t-135 56t-56 135t56 135t135 56zM672 1766q-39 0 -67 -29t-28 -71q0 -41 28 -70t67 -29t67 29t28 70q0 42 -28 71t-67 29z" unicode="Å" horiz-adv-x="1343" glyph-name="Aring"/>
<glyph d="M-35 0l950 1365h761v-123h-585v-491h564v-123h-564v-505h585v-123h-722v461h-503l-323 -461h-163zM538 584h416v607z" unicode="Æ" horiz-adv-x="1771" glyph-name="AE"/>
<glyph d="M793 -24l-43 -102l23 6q24 7 40 7q63 0 103 -43t40 -111q0 -76 -49.5 -126.5t-124.5 -50.5q-132 0 -169 138l86 12q22 -62 79 -62q87 0 87 88q0 35 -26 61t-62 26q-40 0 -76 -42l-55 32l74 170q-282 30 -465 227t-183 470q0 302 206.5 507t511.5 205q229 0 411 -133 q157 -115 209 -239h-152q-78 115 -205.5 182t-269.5 67q-231 0 -402.5 -174.5t-171.5 -410.5q0 -234 173.5 -408t406.5 -174q278 0 474 260h152q-94 -175 -263 -278.5t-359 -103.5z" unicode="Ç" horiz-adv-x="1470" glyph-name="Ccedilla"/>
<glyph d="M147 0v1365h748v-123h-611v-491h591v-123h-591v-505h611v-123h-748zM682 1580l-60 -99l-356 212l60 102z" unicode="È" horiz-adv-x="991" glyph-name="Egrave"/>
<glyph d="M147 0v1365h748v-123h-611v-491h591v-123h-591v-505h611v-123h-748zM396 1580l356 215l60 -102l-356 -212z" unicode="É" horiz-adv-x="991" glyph-name="Eacute"/>
<glyph d="M147 0v1365h748v-123h-611v-491h591v-123h-591v-505h611v-123h-748zM201 1502l268 231h122l264 -231h-165l-159 136l-162 -136h-168z" unicode="Ê" horiz-adv-x="991" glyph-name="Ecircumflex"/>
<glyph d="M147 0v1365h748v-123h-611v-491h591v-123h-591v-505h611v-123h-748zM330 1734h137v-232h-137v232zM603 1734h137v-232h-137v232z" unicode="Ë" horiz-adv-x="991" glyph-name="Edieresis"/>
<glyph d="M146 0v1365h137v-1365h-137zM355 1580l-60 -99l-356 212l60 102z" unicode="Ì" horiz-adv-x="431" glyph-name="Igrave"/>
<glyph d="M147 0v1365h137v-1365h-137zM76 1580l356 215l60 -102l-356 -212z" unicode="Í" horiz-adv-x="431" glyph-name="Iacute"/>
<glyph d="M147 0v1365h137v-1365h-137zM-75 1502l229 231h123l229 -231h-164l-125 136l-128 -136h-164z" unicode="Î" horiz-adv-x="431" glyph-name="Icircumflex"/>
<glyph d="M147 0v1365h137v-1365h-137zM39 1734h130v-232h-130v232zM264 1734h130v-232h-130v232z" unicode="Ï" horiz-adv-x="431" glyph-name="Idieresis"/>
<glyph d="M147 768v597h391q274 0 451 -114q144 -92 228 -245t84 -323q0 -162 -73.5 -308t-204.5 -243q-179 -132 -476 -132h-400v645h-147v123h147zM284 768h413v-123h-413v-522h198q182 0 287 28.5t194 101.5q201 166 201 430q0 274 -220 439q-160 120 -462 120h-198v-474z" unicode="Ð" horiz-adv-x="1374" glyph-name="Eth"/>
<glyph d="M147 0v1365h185l765 -1133v1133h137v-1365h-137l-813 1201v-1201h-137zM929 1707l66 -82q-71 -103 -180 -103q-55 0 -140 40l-41 19q-39 18 -73 18q-56 0 -111 -71l-64 82q73 105 174 105q53 0 136 -37l41 -18l41 -18q20 -7 42 -7q58 0 109 72z" unicode="Ñ" horiz-adv-x="1382" glyph-name="Ntilde"/>
<glyph d="M795 1390q301 0 512 -208.5t211 -505.5q0 -287 -213.5 -494t-509.5 -207q-301 0 -512 209t-211 506q0 286 214 493t509 207zM795 1267q-238 0 -412 -172t-174 -408q0 -244 171.5 -416.5t414.5 -172.5q239 0 412.5 171t173.5 407q0 245 -171.5 418t-414.5 173zM942 1580 l-60 -99l-356 212l60 102z" unicode="Ò" horiz-adv-x="1591" glyph-name="Ograve"/>
<glyph d="M795 1390q301 0 512 -208.5t211 -505.5q0 -287 -213.5 -494t-509.5 -207q-301 0 -512 209t-211 506q0 286 214 493t509 207zM795 1267q-238 0 -412 -172t-174 -408q0 -244 171.5 -416.5t414.5 -172.5q239 0 412.5 171t173.5 407q0 245 -171.5 418t-414.5 173zM656 1580 l356 215l60 -102l-356 -212z" unicode="Ó" horiz-adv-x="1591" glyph-name="Oacute"/>
<glyph d="M795 1390q301 0 512 -208.5t211 -505.5q0 -287 -213.5 -494t-509.5 -207q-301 0 -512 209t-211 506q0 286 214 493t509 207zM795 1267q-238 0 -412 -172t-174 -408q0 -244 171.5 -416.5t414.5 -172.5q239 0 412.5 171t173.5 407q0 245 -171.5 418t-414.5 173zM468 1502 l268 231h122l264 -231h-165l-159 136l-162 -136h-168z" unicode="Ô" horiz-adv-x="1591" glyph-name="Ocircumflex"/>
<glyph d="M795 1390q301 0 512 -208.5t211 -505.5q0 -287 -213.5 -494t-509.5 -207q-301 0 -512 209t-211 506q0 286 214 493t509 207zM795 1267q-238 0 -412 -172t-174 -408q0 -244 171.5 -416.5t414.5 -172.5q239 0 412.5 171t173.5 407q0 245 -171.5 418t-414.5 173zM1047 1707 l66 -82q-70 -103 -180 -103q-55 0 -140 40l-40 19q-40 18 -74 18q-56 0 -111 -71l-64 82q74 105 175 105q52 0 135 -37l41 -18l41 -18q20 -7 42 -7q59 0 109 72z" unicode="Õ" horiz-adv-x="1591" glyph-name="Otilde"/>
<glyph d="M795 1390q301 0 512 -208.5t211 -505.5q0 -287 -213.5 -494t-509.5 -207q-301 0 -512 209t-211 506q0 286 214 493t509 207zM795 1267q-238 0 -412 -172t-174 -408q0 -244 171.5 -416.5t414.5 -172.5q239 0 412.5 171t173.5 407q0 245 -171.5 418t-414.5 173zM590 1734 h137v-232h-137v232zM863 1734h137v-232h-137v232z" unicode="Ö" horiz-adv-x="1591" glyph-name="Odieresis"/>
<glyph d="M595 682l279 -279l-83 -83l-279 279l-280 -280l-83 84l280 279l-280 280l83 83l280 -280l279 280l84 -83z" unicode="×" glyph-name="multiply"/>
<glyph d="M320 152q-248 218 -248 524q0 297 211 505.5t512 208.5q193 0 375 -104l153 200l97 -73l-147 -201q245 -215 245 -537q0 -286 -213.5 -493t-509.5 -207q-193 0 -372 103l-150 -198l-103 73zM397 255l697 929q-146 83 -299 83q-243 0 -414.5 -173.5t-171.5 -417.5 q0 -247 188 -421zM1195 1108l-696 -928q139 -82 296 -82q239 0 412.5 171t173.5 406q0 252 -186 433z" unicode="Ø" horiz-adv-x="1591" glyph-name="Oslash"/>
<glyph d="M134 1365h137v-851q0 -190 87.5 -298.5t240.5 -108.5t240.5 108.5t87.5 298.5v851h137v-851q0 -259 -127 -396q-132 -143 -338 -143t-338 143q-127 137 -127 396v851zM738 1580l-60 -99l-356 212l60 102z" unicode="Ù" horiz-adv-x="1197" glyph-name="Ugrave"/>
<glyph d="M134 1365h137v-851q0 -190 87.5 -298.5t240.5 -108.5t240.5 108.5t87.5 298.5v851h137v-851q0 -259 -127 -396q-132 -143 -338 -143t-338 143q-127 137 -127 396v851zM473 1580l356 215l60 -102l-356 -212z" unicode="Ú" horiz-adv-x="1197" glyph-name="Uacute"/>
<glyph d="M134 1365h137v-851q0 -190 87.5 -298.5t240.5 -108.5t240.5 108.5t87.5 298.5v851h137v-851q0 -259 -127 -396q-132 -143 -338 -143t-338 143q-127 137 -127 396v851zM272 1502l268 231h122l264 -231h-165l-159 136l-162 -136h-168z" unicode="Û" horiz-adv-x="1197" glyph-name="Ucircumflex"/>
<glyph d="M134 1365h137v-851q0 -190 87.5 -298.5t240.5 -108.5t240.5 108.5t87.5 298.5v851h137v-851q0 -259 -127 -396q-132 -143 -338 -143t-338 143q-127 137 -127 396v851zM394 1734h137v-232h-137v232zM667 1734h137v-232h-137v232z" unicode="Ü" horiz-adv-x="1197" glyph-name="Udieresis"/>
<glyph d="M477 0v456l-474 909h151l390 -766l400 766h149l-479 -909v-456h-137zM435 1580l356 215l60 -102l-356 -212z" unicode="Ý" horiz-adv-x="1096" glyph-name="Yacute"/>
<glyph d="M147 0v1365h137v-211h244q260 0 383 -101q140 -114 140 -309q0 -189 -130.5 -297t-358.5 -108h-278v-339h-137zM284 462h256q191 0 276 69q98 80 98 214q0 159 -133 237q-54 31 -108.5 40t-190.5 9h-198v-569z" unicode="Þ" horiz-adv-x="1102" glyph-name="Thorn"/>
<glyph d="M127 0v887q0 254 89 363q52 64 133 102t164 38q154 0 266 -113.5t112 -270.5q0 -196 -155 -288q251 -86 251 -348q0 -167 -110 -281t-272 -114q-117 0 -207 58.5t-141 166.5v-200h-130zM264 374h90q0 -117 72.5 -200t174.5 -83q107 0 181.5 78.5t74.5 190.5 q0 143 -118 219q-82 52 -245 52l-63 -1v124q159 0 244.5 67.5t85.5 194.5q0 106 -72.5 182t-172.5 76q-125 0 -194 -100q-58 -84 -58 -287v-513z" unicode="ß" horiz-adv-x="1057" glyph-name="germandbls"/>
<glyph d="M1140 1010v-1010h-130v177q-148 -202 -395 -202q-119 0 -229.5 48t-183.5 133q-133 151 -133 343q0 228 156.5 382t386.5 154q255 0 398 -204v179h130zM610 919q-165 0 -288 -122t-123 -285q0 -175 121.5 -298t293.5 -123q160 0 278 121.5t118 285.5q0 177 -116 299 t-284 122zM757 1219l-72 -83l-319 265l73 86z" unicode="à" horiz-adv-x="1274" glyph-name="agrave"/>
<glyph d="M1140 1010v-1010h-130v177q-148 -202 -395 -202q-119 0 -229.5 48t-183.5 133q-133 151 -133 343q0 228 156.5 382t386.5 154q255 0 398 -204v179h130zM610 919q-165 0 -288 -122t-123 -285q0 -175 121.5 -298t293.5 -123q160 0 278 121.5t118 285.5q0 177 -116 299 t-284 122zM483 1219l318 268l73 -86l-319 -265z" unicode="á" horiz-adv-x="1274" glyph-name="aacute"/>
<glyph d="M1140 1010v-1010h-130v177q-148 -202 -395 -202q-119 0 -229.5 48t-183.5 133q-133 151 -133 343q0 228 156.5 382t386.5 154q255 0 398 -204v179h130zM610 919q-165 0 -288 -122t-123 -285q0 -175 121.5 -298t293.5 -123q160 0 278 121.5t118 285.5q0 177 -116 299 t-284 122zM322 1161l242 251h123l237 -251h-155l-143 156l-145 -156h-159z" unicode="â" horiz-adv-x="1274" glyph-name="acircumflex"/>
<glyph d="M1140 1010v-1010h-130v177q-148 -202 -395 -202q-119 0 -229.5 48t-183.5 133q-133 151 -133 343q0 228 156.5 382t386.5 154q255 0 398 -204v179h130zM610 919q-165 0 -288 -122t-123 -285q0 -175 121.5 -298t293.5 -123q160 0 278 121.5t118 285.5q0 177 -116 299 t-284 122zM854 1360l66 -79q-70 -99 -182 -99q-49 0 -131 38l-39 18q-38 18 -68 18q-56 0 -111 -68l-64 79q73 98 180 98q63 0 131 -34l33 -16q48 -24 84 -24q52 0 101 69z" unicode="ã" horiz-adv-x="1274" glyph-name="atilde"/>
<glyph d="M1140 1010v-1010h-130v177q-148 -202 -395 -202q-119 0 -229.5 48t-183.5 133q-133 151 -133 343q0 228 156.5 382t386.5 154q255 0 398 -204v179h130zM610 919q-165 0 -288 -122t-123 -285q0 -175 121.5 -298t293.5 -123q160 0 278 121.5t118 285.5q0 177 -116 299 t-284 122zM421 1399h130v-232h-130v232zM687 1399h130v-232h-130v232z" unicode="ä" horiz-adv-x="1274" glyph-name="adieresis"/>
<glyph d="M1140 1010v-1010h-130v177q-148 -202 -395 -202q-119 0 -229.5 48t-183.5 133q-133 151 -133 343q0 228 156.5 382t386.5 154q255 0 398 -204v179h130zM610 919q-165 0 -288 -122t-123 -285q0 -175 121.5 -298t293.5 -123q160 0 278 121.5t118 285.5q0 177 -116 299 t-284 122zM626 1526q79 0 135 -56t56 -136q0 -79 -56 -135t-135 -56t-135 56t-56 135q0 80 56 136t135 56zM626 1439q-41 0 -70 -30.5t-29 -73.5t29.5 -73.5t70.5 -30.5t70 30.5t29 73.5t-29 73.5t-71 30.5z" unicode="å" horiz-adv-x="1274" glyph-name="aring"/>
<glyph d="M2062 456h-912q13 -152 125.5 -258.5t258.5 -106.5q114 0 214 67.5t139 170.5h142q-48 -153 -188 -253.5t-306 -100.5q-228 0 -392 187v-162h-130v162q-156 -187 -398 -187q-284 0 -442 217q-103 143 -103 309q0 221 158.5 377.5t381.5 156.5q263 0 403 -196v171h130 v-171q58 87 166.5 141.5t224.5 54.5q119 0 231.5 -56.5t187.5 -153.5q109 -142 109 -369zM1920 572q-21 153 -130 250t-259 97q-140 0 -247.5 -99t-128.5 -248h765zM606 919q-165 0 -285.5 -123t-120.5 -291q0 -172 118.5 -293t287.5 -121q173 0 291.5 119t118.5 293 q0 177 -118 296.5t-292 119.5z" unicode="æ" horiz-adv-x="2131" glyph-name="ae"/>
<glyph d="M613 -26l-33 -81q32 13 61 13q64 0 104 -41t40 -107q0 -75 -48.5 -123.5t-123.5 -48.5q-127 0 -157 135l81 10q6 -30 30.5 -49t54.5 -19q34 0 57 25.5t23 62.5q0 39 -25 65t-63 26q-44 0 -76 -41l-55 32l64 145q-216 34 -347 178.5t-131 347.5q0 221 159.5 376t387.5 155 q167 0 302 -89.5t196 -240.5h-152q-58 100 -150.5 157t-197.5 57q-175 0 -295 -119.5t-120 -292.5q0 -175 118.5 -295.5t290.5 -120.5q207 0 354 205h152q-167 -322 -501 -322z" unicode="ç" horiz-adv-x="1168" glyph-name="ccedilla"/>
<glyph d="M1122 457h-916q8 -151 123.5 -258.5t270.5 -107.5q109 0 210 69t140 170h142q-54 -155 -192 -255t-299 -100q-221 0 -376 154t-155 374q0 222 154 377t373 155q140 0 262 -72t193 -197q70 -123 70 -309zM986 573q-37 158 -142 252t-244 94q-146 0 -255 -96.5t-136 -249.5 h777zM730 1219l-72 -83l-319 265l73 86z" unicode="è" horiz-adv-x="1192" glyph-name="egrave"/>
<glyph d="M1122 457h-916q8 -151 123.5 -258.5t270.5 -107.5q109 0 210 69t140 170h142q-54 -155 -192 -255t-299 -100q-221 0 -376 154t-155 374q0 222 154 377t373 155q140 0 262 -72t193 -197q70 -123 70 -309zM986 573q-37 158 -142 252t-244 94q-146 0 -255 -96.5t-136 -249.5 h777zM469 1219l318 268l73 -86l-319 -265z" unicode="é" horiz-adv-x="1192" glyph-name="eacute"/>
<glyph d="M1122 457h-916q8 -151 123.5 -258.5t270.5 -107.5q109 0 210 69t140 170h142q-54 -155 -192 -255t-299 -100q-221 0 -376 154t-155 374q0 222 154 377t373 155q140 0 262 -72t193 -197q70 -123 70 -309zM986 573q-37 158 -142 252t-244 94q-146 0 -255 -96.5t-136 -249.5 h777zM295 1161l242 251h123l237 -251h-155l-143 156l-145 -156h-159z" unicode="ê" horiz-adv-x="1192" glyph-name="ecircumflex"/>
<glyph d="M1122 457h-916q8 -151 123.5 -258.5t270.5 -107.5q109 0 210 69t140 170h142q-54 -155 -192 -255t-299 -100q-221 0 -376 154t-155 374q0 222 154 377t373 155q140 0 262 -72t193 -197q70 -123 70 -309zM986 573q-37 158 -142 252t-244 94q-146 0 -255 -96.5t-136 -249.5 h777zM405 1399h130v-232h-130v232zM671 1399h130v-232h-130v232z" unicode="ë" horiz-adv-x="1192" glyph-name="edieresis"/>
<glyph d="M134 0v1010h130v-1010h-130zM326 1219l-72 -83l-305 265l73 86z" unicode="ì" horiz-adv-x="397" glyph-name="igrave"/>
<glyph d="M134 0v1010h130v-1010h-130zM71 1219l304 268l73 -86l-305 -265z" unicode="í" horiz-adv-x="397" glyph-name="iacute"/>
<glyph d="M134 0v1010h130v-1010h-130zM-82 1161l221 251h123l217 -251h-155l-122 156l-125 -156h-159z" unicode="î" horiz-adv-x="397" glyph-name="icircumflex"/>
<glyph d="M134 0v1010h130v-1010h-130zM22 1399h123v-232h-123v232zM254 1399h123v-232h-123v232z" unicode="ï" horiz-adv-x="397" glyph-name="idieresis"/>
<glyph d="M409 1167l128 79l-109 116l89 72l120 -129l141 85l56 -87l-124 -74l145 -184l91 -112q180 -225 180 -429q0 -190 -131 -344q-157 -185 -401 -185q-215 0 -369.5 155t-154.5 371q0 218 154 376t368 158q58 0 136 -20l-126 152l-136 -82zM601 919q-164 0 -282.5 -121.5 t-118.5 -290.5q0 -175 116 -295.5t285 -120.5q166 0 280.5 121.5t114.5 298.5q0 167 -117 287.5t-278 120.5z" unicode="ð" horiz-adv-x="1195" glyph-name="eth"/>
<glyph d="M134 0v1010h130v-131q140 156 311 156q202 0 324 -131t122 -349v-555h-130v555q0 164 -86.5 264t-228.5 100q-140 0 -235 -110q-69 -79 -69 -254v-555h-138zM819 1360l66 -79q-70 -99 -182 -99q-49 0 -131 38l-39 18q-38 18 -68 18q-56 0 -111 -68l-64 79q73 98 180 98 q63 0 131 -34l33 -16q48 -24 84 -24q52 0 101 69z" unicode="ñ" horiz-adv-x="1148" glyph-name="ntilde"/>
<glyph d="M600 1035q215 0 370 -158t155 -378q0 -211 -156.5 -367.5t-367.5 -156.5q-222 0 -376.5 156t-154.5 381q0 213 157.5 368t372.5 155zM600 919q-164 0 -282 -121.5t-118 -290.5q0 -175 116 -295.5t284 -120.5q166 0 280.5 121.5t114.5 298.5q0 167 -116.5 287.5 t-278.5 120.5zM731 1219l-72 -83l-319 265l73 86z" unicode="ò" horiz-adv-x="1195" glyph-name="ograve"/>
<glyph d="M600 1035q215 0 370 -158t155 -378q0 -211 -156.5 -367.5t-367.5 -156.5q-222 0 -376.5 156t-154.5 381q0 213 157.5 368t372.5 155zM600 919q-164 0 -282 -121.5t-118 -290.5q0 -175 116 -295.5t284 -120.5q166 0 280.5 121.5t114.5 298.5q0 167 -116.5 287.5 t-278.5 120.5zM470 1219l318 268l73 -86l-319 -265z" unicode="ó" horiz-adv-x="1195" glyph-name="oacute"/>
<glyph d="M600 1035q215 0 370 -158t155 -378q0 -211 -156.5 -367.5t-367.5 -156.5q-222 0 -376.5 156t-154.5 381q0 213 157.5 368t372.5 155zM600 919q-164 0 -282 -121.5t-118 -290.5q0 -175 116 -295.5t284 -120.5q166 0 280.5 121.5t114.5 298.5q0 167 -116.5 287.5 t-278.5 120.5zM296 1161l242 251h123l237 -251h-155l-143 156l-145 -156h-159z" unicode="ô" horiz-adv-x="1195" glyph-name="ocircumflex"/>
<glyph d="M600 1035q215 0 370 -158t155 -378q0 -211 -156.5 -367.5t-367.5 -156.5q-222 0 -376.5 156t-154.5 381q0 213 157.5 368t372.5 155zM600 919q-164 0 -282 -121.5t-118 -290.5q0 -175 116 -295.5t284 -120.5q166 0 280.5 121.5t114.5 298.5q0 167 -116.5 287.5 t-278.5 120.5zM842 1360l66 -79q-70 -99 -182 -99q-49 0 -131 38l-39 18q-38 18 -68 18q-56 0 -111 -68l-64 79q73 98 180 98q63 0 131 -34l33 -16q48 -24 84 -24q52 0 101 69z" unicode="õ" horiz-adv-x="1195" glyph-name="otilde"/>
<glyph d="M600 1035q215 0 370 -158t155 -378q0 -211 -156.5 -367.5t-367.5 -156.5q-222 0 -376.5 156t-154.5 381q0 213 157.5 368t372.5 155zM600 919q-164 0 -282 -121.5t-118 -290.5q0 -175 116 -295.5t284 -120.5q166 0 280.5 121.5t114.5 298.5q0 167 -116.5 287.5 t-278.5 120.5zM400 1399h130v-232h-130v232zM666 1399h130v-232h-130v232z" unicode="ö" horiz-adv-x="1195" glyph-name="odieresis"/>
<glyph d="M558 244q53 0 90 -37t37 -89q0 -53 -37 -90t-90 -37q-52 0 -89 37t-37 90q0 52 37 89t89 37zM558 1062q53 0 90 -37t37 -89q0 -53 -37 -90t-90 -37q-52 0 -89 37t-37 90q0 52 37 89t89 37zM20 590h1077v-113h-1077v113z" unicode="÷" horiz-adv-x="1124" glyph-name="divide"/>
<glyph d="M234 120q-164 172 -164 378q0 223 155 380t376 157q135 0 273 -80l122 164l87 -66l-122 -164q164 -183 164 -390q0 -211 -157 -367.5t-367 -156.5q-167 0 -280 82l-115 -154l-84 70zM311 218l489 639q-83 62 -199 62q-167 0 -284 -122.5t-117 -297.5q0 -158 111 -281z M884 791l-489 -640q87 -60 205 -60q166 0 280.5 121.5t114.5 297.5q0 169 -111 281z" unicode="ø" horiz-adv-x="1195" glyph-name="oslash"/>
<glyph d="M1012 1010v-1010h-123v156q-101 -181 -339 -181q-199 0 -320 136q-103 116 -103 342v557h130v-557q0 -170 83 -266t229 -96q142 0 227.5 99t85.5 263v557h130zM713 1219l-72 -83l-319 265l73 86z" unicode="ù" horiz-adv-x="1146" glyph-name="ugrave"/>
<glyph d="M1012 1010v-1010h-123v156q-101 -181 -339 -181q-199 0 -320 136q-103 116 -103 342v557h130v-557q0 -170 83 -266t229 -96q142 0 227.5 99t85.5 263v557h130zM446 1219l318 268l73 -86l-319 -265z" unicode="ú" horiz-adv-x="1146" glyph-name="uacute"/>
<glyph d="M1012 1010v-1010h-123v156q-101 -181 -339 -181q-199 0 -320 136q-103 116 -103 342v557h130v-557q0 -170 83 -266t229 -96q142 0 227.5 99t85.5 263v557h130zM272 1161l242 251h123l237 -251h-155l-143 156l-145 -156h-159z" unicode="û" horiz-adv-x="1146" glyph-name="ucircumflex"/>
<glyph d="M1012 1010v-1010h-123v156q-101 -181 -339 -181q-199 0 -320 136q-103 116 -103 342v557h130v-557q0 -170 83 -266t229 -96q142 0 227.5 99t85.5 263v557h130zM371 1399h130v-232h-130v232zM637 1399h130v-232h-130v232z" unicode="ü" horiz-adv-x="1146" glyph-name="udieresis"/>
<glyph d="M229 -355l165 387l-394 978h149l321 -805l342 805h146l-584 -1365h-145zM372 1219l318 268l73 -86l-319 -265z" unicode="ý" horiz-adv-x="958" glyph-name="yacute"/>
<glyph d="M134 1365h130v-528q64 94 170.5 146t234.5 52q221 0 378 -157t157 -378q0 -215 -158.5 -370t-378.5 -155q-260 0 -396 199v-529h-137v1720zM672 919q-172 0 -290.5 -117.5t-118.5 -288.5q0 -185 115.5 -303.5t295.5 -118.5q166 0 283 120.5t117 291.5q0 172 -118 294 t-284 122z" unicode="þ" horiz-adv-x="1272" glyph-name="thorn"/>
<glyph d="M134 0v1010h130v-1010h-130z" unicode="ı" horiz-adv-x="397" glyph-name="dotlessi"/>
<glyph d="M211 1161l242 251h123l237 -251h-155l-143 156l-145 -156h-159z" unicode="ˆ" glyph-name="circumflex"/>
<glyph d="M512 1526q79 0 135 -56t56 -136q0 -79 -56 -135t-135 -56t-135 56t-56 135q0 80 56 136t135 56zM512 1439q-41 0 -70 -30.5t-29 -73.5t29.5 -73.5t70.5 -30.5t70 30.5t29 73.5t-29 73.5t-71 30.5z" unicode="˚" glyph-name="ring"/>
<glyph d="M743 1360l66 -79q-70 -99 -182 -99q-49 0 -131 38l-39 18q-38 18 -68 18q-56 0 -111 -68l-64 79q73 98 180 98q63 0 131 -34l33 -16q48 -24 84 -24q52 0 101 69z" unicode="˜" glyph-name="tilde"/>
<glyph d="M307 1734h137v-232h-137v232zM580 1734h137v-232h-137v232z" glyph-name="glyph289"/>
<glyph d="M386 1580l356 215l60 -102l-356 -212z" glyph-name="glyph290"/>
<glyph d="M638 1580l-60 -99l-356 212l60 102z" glyph-name="glyph291"/>
<glyph d="M185 1502l268 231h122l264 -231h-165l-159 136l-162 -136h-168z" glyph-name="glyph292"/>
<glyph d="M917 1707l66 -82q-70 -103 -180 -103q-55 0 -140 40l-40 19q-40 18 -74 18q-56 0 -111 -71l-64 82q74 105 175 105q52 0 135 -37l41 -18l41 -18q20 -7 42 -7q59 0 109 72z" horiz-adv-x="1343" glyph-name="glyph295"/>
<glyph d="M512 1857q79 0 135 -56t56 -135t-56 -135t-135 -56t-135 56t-56 135t56 135t135 56zM512 1766q-39 0 -67 -29t-28 -71q0 -41 28 -70t67 -29t67 29t28 70q0 42 -28 71t-67 29z" glyph-name="glyph296"/>
<glyph d="M335 1734h130v-232h-130v232zM560 1734h130v-232h-130v232z" glyph-name="glyph300"/>
<glyph d="M-75 1502l229 231h123l229 -231h-164l-125 136l-128 -136h-164z" horiz-adv-x="431" glyph-name="glyph301"/>
<glyph d="M929 1707l66 -82q-71 -103 -180 -103q-55 0 -140 40l-41 19q-39 18 -73 18q-56 0 -111 -71l-64 82q73 105 174 105q53 0 136 -37l41 -18l41 -18q20 -7 42 -7q58 0 109 72z" horiz-adv-x="1382" glyph-name="glyph308"/>
<glyph d="M1047 1707l66 -82q-70 -103 -180 -103q-55 0 -140 40l-40 19q-40 18 -74 18q-56 0 -111 -71l-64 82q74 105 175 105q52 0 135 -37l41 -18l41 -18q20 -7 42 -7q59 0 109 72z" horiz-adv-x="1591" glyph-name="glyph309"/>
<glyph d="M335 1399h123v-232h-123v232zM567 1399h123v-232h-123v232z" glyph-name="glyph327"/>
<glyph d="M71 1219l304 268l73 -86l-305 -265z" horiz-adv-x="397" glyph-name="glyph328"/>
<glyph d="M326 1219l-72 -83l-305 265l73 86z" horiz-adv-x="397" glyph-name="glyph329"/>
</font>
</defs>
</svg>
